<?xml version="1.0" standalone="no"?>
<!DOCTYPE svg PUBLIC "-//W3C//DTD SVG 1.1//EN" "http://www.w3.org/Graphics/SVG/1.1/DTD/svg11.dtd" >
<svg>
<metadata>
Created by FontForge 20120731 at Mon Jun 17 06:58:00 2019
 By www-data
Copyright (c) 2015, Cadson Demak (info@cadsondemak.com), Copyright (c) 2014, Pablo Impallari (www.impallari.com|impallari@gmail.com)
</metadata>
<defs>
<font id="Sriracha-Regular" horiz-adv-x="0" >
  <font-face 
    font-family="Sriracha"
    font-weight="400"
    font-stretch="normal"
    units-per-em="1000"
    panose-1="0 0 5 0 0 0 0 0 0 0"
    ascent="750"
    descent="-250"
    x-height="467"
    cap-height="661"
    bbox="-610 -562 1254 1220"
    underline-thickness="50"
    underline-position="-50"
    unicode-range="U+000D-FB04"
  />
<missing-glyph horiz-adv-x="600" 
d="M505 714v-714h-411v714h411zM454 51v612h-309v-612h309z" />
    <glyph glyph-name="f_f" unicode="ff" horiz-adv-x="886" 
d="M937 693q34 -20 51 -51t17 -63q0 -25 -11.5 -40t-47.5 -15q-13 0 -18.5 8t-11.5 27q-7 25 -19 39t-42 14q-34 0 -58 -18.5t-30 -44.5l-26 -105l94 4q38 0 38 -42q0 -17 -14 -29t-32 -15l-108 -8l-97 -388q-8 -16 -25.5 -28t-37.5 -12q-18 0 -36.5 13.5t-18.5 35.5v6
l90 364l-326 -23l-89 -356q-8 -16 -25.5 -28t-37.5 -12q-18 0 -36.5 13.5t-18.5 35.5v6l82 332l-100 -7q-31 0 -31 28q0 25 18 50q6 7 135 19l24 99q26 104 78 157.5t147 53.5q46 0 80 -20t51 -51t17 -63q0 -25 -11.5 -40t-47.5 -15q-13 0 -18.5 8t-11.5 27q-7 25 -19 39
t-42 14q-34 0 -58 -18.5t-30 -44.5l-34 -135q157 12 326 22l16 66q26 104 78 157.5t147 53.5q46 0 80 -20z" />
    <glyph glyph-name="f_f_i" unicode="ffi" horiz-adv-x="1162" 
d="M797 593.5q-24 -18.5 -30 -44.5l-26 -105l94 4q38 0 38 -42q0 -17 -14 -29t-32 -15l-108 -8l-97 -388q-8 -16 -25.5 -28t-37.5 -12q-18 0 -36.5 13.5t-18.5 35.5v6l90 364l-326 -23l-89 -356q-8 -16 -25.5 -28t-37.5 -12q-18 0 -36.5 13.5t-18.5 35.5v6l82 332l-100 -7
q-31 0 -31 28q0 25 18 50q6 7 135 19l24 99q26 104 78 157.5t147 53.5q46 0 80 -20t51 -51t17 -63q0 -25 -11.5 -40t-47.5 -15q-13 0 -18.5 8t-11.5 27q-7 25 -19 39t-42 14q-34 0 -58 -18.5t-30 -44.5l-34 -135q157 12 326 22l16 66q26 104 78 157.5t147 53.5q46 0 80 -20
t51 -51t17 -63q0 -25 -11.5 -40t-47.5 -15q-13 0 -18.5 8t-11.5 27q-7 25 -19 39t-42 14q-34 0 -58 -18.5zM1159.5 650q27.5 -23 27.5 -52t-28 -50t-65 -21q-36 0 -54.5 18.5t-18.5 48.5q0 31 19.5 55t54.5 24q37 0 64.5 -23zM1115.5 467.5q9.5 -19.5 10.5 -50.5
q-53 -217 -81 -325q-4 -16 -4 -35l1 -28q0 -17 -10.5 -24t-44.5 -8q-33 0 -50 7t-17 30q0 11 25.5 117t69.5 276l-23 30q-3 3 -3 7q0 10 22 16.5t61 6.5q34 0 43.5 -19.5z" />
    <glyph glyph-name="f_i" unicode="fi" horiz-adv-x="740" 
d="M179 -34q-8 -16 -25.5 -28t-37.5 -12q-18 0 -36.5 13.5t-18.5 35.5v6l85 347l-93 -8q-31 0 -31 31q0 25 18 50q3 4 131 18l18 83q24 104 76.5 157.5t148.5 53.5q46 0 80 -20t51 -51t17 -63q0 -25 -11.5 -40t-47.5 -15q-13 0 -18.5 8t-11.5 27q-7 25 -19 39t-42 14
q-34 0 -57.5 -18.5t-30.5 -44.5l-31 -118l61 6q40 4 43 4q38 0 38 -44q0 -17 -14.5 -30.5t-31.5 -16.5l-119 -12zM618.5 649q19.5 24 54.5 24q37 0 64.5 -23t27.5 -52t-28 -50t-65 -21q-36 0 -54.5 18.5t-18.5 48.5q0 31 19.5 55zM623 92q-4 -16 -4 -35l1 -28
q0 -17 -10.5 -24t-44.5 -8q-33 0 -50 7t-17 30q0 11 25.5 117t69.5 276l-23 30q-3 3 -3 7q0 10 22 16.5t61 6.5q34 0 43.5 -19.5t10.5 -50.5q-53 -216 -81 -325z" />
    <glyph glyph-name="f_t" unicode="ft" horiz-adv-x="843" 
d="M179 -34q-8 -16 -25.5 -28t-37.5 -12q-18 0 -36.5 13.5t-18.5 35.5v6l85 347l-93 -8q-31 0 -31 31q0 25 18 50q3 4 131 18l18 83q24 104 76.5 157.5t148.5 53.5q46 0 80 -20t51 -51t17 -63q0 -25 -11.5 -40t-47.5 -15q-13 0 -18.5 8t-11.5 27q-7 25 -19 39t-42 14
q-34 0 -57.5 -18.5t-30.5 -44.5l-31 -118l61 6q40 4 43 4q38 0 38 -44q0 -17 -14.5 -30.5t-31.5 -16.5l-119 -12zM590 110q0 -23 12 -36.5t34 -13.5q30 0 49.5 17.5t41.5 49.5q16 23 26 33t23 10q26 0 37 -6.5t11 -26.5q0 -9 -2 -21.5t-5 -18.5q-24 -51 -78.5 -88
t-123.5 -37t-104 33.5t-35 95.5q0 9 9 47t23 91l28 114l-61 -5q-12 0 -18 9t-6 22q0 25 18 50q2 3 20 6t44 6l27 3l34 146q10 26 30.5 40.5t38.5 14.5q20 0 34 -12t15 -28l-36 -150q39 5 72.5 8.5t52.5 3.5q38 0 38 -44q0 -17 -14.5 -30.5t-31.5 -16.5l-140 -14z" />
    <glyph glyph-name="t_t" unicode="tt" horiz-adv-x="826" 
d="M167 110q0 -23 12 -36.5t34 -13.5q30 0 49.5 17.5t41.5 49.5q16 23 26 33t23 10q26 0 37 -6.5t11 -26.5q0 -9 -2 -21.5t-5 -18.5q-24 -51 -78.5 -88t-123.5 -37t-104 33.5t-35 95.5q0 9 9 47t23 91l28 114l-61 -5q-12 0 -18 9t-6 22q0 25 18 50q2 3 20 6t44 6l27 3
l34 146q10 26 30.5 40.5t38.5 14.5q20 0 34 -12t15 -28l-36 -150q39 5 72.5 8.5t52.5 3.5q38 0 38 -44q0 -17 -14.5 -30.5t-31.5 -16.5l-140 -14zM553 110q0 -23 12 -36.5t34 -13.5q30 0 49.5 17.5t41.5 49.5q16 23 26 33t23 10q26 0 37 -6.5t11 -26.5q0 -9 -2 -21.5
t-5 -18.5q-24 -51 -78.5 -88t-123.5 -37t-104 33.5t-35 95.5q0 9 9 47t23 91l28 114l-61 -5q-12 0 -18 9t-6 22q0 25 18 50q2 3 20 6t44 6l27 3l34 146q10 26 30.5 40.5t38.5 14.5q20 0 34 -12t15 -28l-36 -150q39 5 72.5 8.5t52.5 3.5q38 0 38 -44q0 -17 -14.5 -30.5
t-31.5 -16.5l-140 -14z" />
    <glyph glyph-name="ru_lakkhangyaothai" unicode="&#xe24;&#xe45;" horiz-adv-x="925" 
d="M85.5 481.5q42.5 37.5 113.5 59.5t151 22q50 0 99.5 -19.5t68.5 -55.5q33 38 73.5 56.5t100.5 18.5q65 0 107 -25.5t61 -62t19 -70.5q0 -10 -1 -14q-10 -65 -77 -333q-6 -23 -29 -117t-29 -131q-12 -24 -31 -37t-60 -13q-32 0 -32 31q0 6 2 18l18 77l49 202
q64 256 76 316q1 4 1 10q0 28 -26.5 45.5t-55.5 17.5q-57 0 -89 -31t-39 -81l-2 -15v-2q-7 -59 -27 -145t-53 -216q-37 -143 -42 -178q-12 -24 -31 -37t-60 -13q-32 0 -32 31q0 6 2 18q58 214 84.5 316.5t38 165.5t11.5 109q0 36 -25.5 54.5t-73.5 18.5q-60 0 -112.5 -19
t-79.5 -53q34 -3 57.5 -20.5t23.5 -47.5q0 -9 -3 -20q-8 -28 -15 -50.5t-12 -40.5q-20 -63 -30 -108q-2 -8 -2 -19q0 -10 3 -12.5t7 -2.5q13 0 28 13t23 29q27 -9 36 -25t9 -36q0 -35 -43 -56.5t-98 -21.5q-32 0 -55 19.5t-23 57.5q0 59 15.5 123t49.5 154q-10 7 -34 17
q-25 11 -36.5 20.5t-11.5 26.5q0 44 42.5 81.5z" />
    <glyph glyph-name="lu_lakkhangyaothai" unicode="&#xe26;&#xe45;" horiz-adv-x="921" 
d="M31 124q9 -30 19.5 -37.5t25.5 -7.5q10 54 30 130.5t39 126.5q-9 7 -24 12t-19 7q-30 10 -44.5 19t-14.5 26q0 44 42.5 81.5t113.5 59.5t151 22q49 0 104 -21.5t70 -54.5q25 37 64.5 56.5t99.5 19.5q65 0 107 -25.5t61 -62t19 -70.5q0 -10 -1 -14q-10 -65 -77 -333
q-6 -23 -29 -117t-29 -131q-12 -24 -31 -37t-60 -13q-32 0 -32 31q0 6 2 18l18 77l49 202q64 256 76 316q1 4 1 10q0 28 -26.5 45.5t-55.5 17.5q-57 0 -89.5 -31.5t-38.5 -81.5l-2 -13v-3q-7 -59 -25 -135.5t-56 -224.5q-36 -136 -44 -183q-12 -24 -31 -37t-60 -13
q-32 0 -32 31q0 6 2 18l14 60q7 33 35 134q42 157 65.5 256t23.5 145q0 73 -96 73q-60 0 -112.5 -19t-79.5 -53q37 -4 69 -21.5t32 -46.5q0 -9 -3 -20q-2 -7 -41 -154l-23 -88q-8 -31 -30.5 -59t-63.5 -28q-52 0 -84.5 20.5t-32.5 57.5q0 48 54 63z" />
    <glyph glyph-name=".notdef" horiz-adv-x="600" 
d="M505 714v-714h-411v714h411zM454 51v612h-309v-612h309z" />
    <glyph glyph-name="nonmarkingreturn" unicode="&#xd;" horiz-adv-x="260" 
 />
    <glyph glyph-name="space" unicode=" " horiz-adv-x="260" 
 />
    <glyph glyph-name="A" unicode="A" horiz-adv-x="656" 
d="M228 182q-24 -38 -31 -51q-21 -37 -37.5 -61.5t-35.5 -43.5q-21 -21 -34.5 -30t-31.5 -9q-30 0 -52.5 13.5t-22.5 27.5q2 2 22 44.5t74 106.5q0 8 -5 20t-5 14q0 29 91 70q51 76 107.5 150t138.5 175q20 25 51 41t62 16q32 0 48 -6t20.5 -16t4.5 -28q-4 -30 -5 -45
q-15 -121 -22.5 -207.5t-7.5 -172.5q0 -79 7 -145q-3 -24 -21 -43.5t-42 -19.5q-46 0 -60.5 23t-14.5 78q0 40 11 139q-131 -22 -209 -40zM362 306l80 12q9 139 21 200q-39 -46 -156 -221q18 4 55 9z" />
    <glyph glyph-name="Aacute" unicode="&#xc1;" horiz-adv-x="656" 
d="M553.5 840q39.5 38 78 67.5t49.5 29.5q21 0 48 -19t27 -35q0 -13 -14 -26t-57 -43q-61 -43 -93 -59.5t-58 -16.5q-19 0 -28 7t-9 24q0 8 3 12q14 21 53.5 59zM228 182q-24 -38 -31 -51q-21 -37 -37.5 -61.5t-35.5 -43.5q-21 -21 -34.5 -30t-31.5 -9q-30 0 -52.5 13.5
t-22.5 27.5q2 2 22 44.5t74 106.5q0 8 -5 20t-5 14q0 29 91 70q51 76 107.5 150t138.5 175q20 25 51 41t62 16q32 0 48 -6t20.5 -16t4.5 -28q-4 -30 -5 -45q-15 -121 -22.5 -207.5t-7.5 -172.5q0 -79 7 -145q-3 -24 -21 -43.5t-42 -19.5q-46 0 -60.5 23t-14.5 78
q0 40 11 139q-131 -22 -209 -40zM362 306l80 12q9 139 21 200q-39 -46 -156 -221q18 4 55 9z" />
    <glyph glyph-name="Abreve" unicode="&#x102;" horiz-adv-x="656" 
d="M436 737.5q-37 24.5 -37 69.5q0 55 53 55q33 0 34 -32q1 -20 11 -28t45 -8q32 0 50 6.5t28.5 19t23.5 37.5q7 6 16.5 10t17.5 4q35 0 44 -14q-10 -70 -63 -106t-125 -38q-61 0 -98 24.5zM228 182q-24 -38 -31 -51q-21 -37 -37.5 -61.5t-35.5 -43.5q-21 -21 -34.5 -30
t-31.5 -9q-30 0 -52.5 13.5t-22.5 27.5q2 2 22 44.5t74 106.5q0 8 -5 20t-5 14q0 29 91 70q51 76 107.5 150t138.5 175q20 25 51 41t62 16q32 0 48 -6t20.5 -16t4.5 -28q-4 -30 -5 -45q-15 -121 -22.5 -207.5t-7.5 -172.5q0 -79 7 -145q-3 -24 -21 -43.5t-42 -19.5
q-46 0 -60.5 23t-14.5 78q0 40 11 139q-131 -22 -209 -40zM362 306l80 12q9 139 21 200q-39 -46 -156 -221q18 4 55 9z" />
    <glyph glyph-name="uni1EAE" unicode="&#x1eae;" horiz-adv-x="656" 
d="M586.5 943q30.5 38 41.5 38q16 0 45.5 -13.5t29.5 -23.5q0 -9 -10 -18.5t-40 -29.5l-34 -24q-24 -18 -36.5 -25t-25.5 -7q-14 0 -20 5t-6 17q0 4 2 8q23 35 53.5 73zM456 733.5q-37 24.5 -37 69.5q0 55 53 55q27 0 28 -36q1 -19 12.5 -27.5t47.5 -8.5q32 0 50.5 7.5
t29.5 21t24 38.5q7 6 16.5 10t17.5 4q35 0 44 -14q-10 -70 -63 -106t-125 -38q-61 0 -98 24.5zM228 182q-24 -38 -31 -51q-21 -37 -37.5 -61.5t-35.5 -43.5q-21 -21 -34.5 -30t-31.5 -9q-30 0 -52.5 13.5t-22.5 27.5q2 2 22 44.5t74 106.5q0 8 -5 20t-5 14q0 29 91 70
q51 76 107.5 150t138.5 175q20 25 51 41t62 16q32 0 48 -6t20.5 -16t4.5 -28q-4 -30 -5 -45q-15 -121 -22.5 -207.5t-7.5 -172.5q0 -79 7 -145q-3 -24 -21 -43.5t-42 -19.5q-46 0 -60.5 23t-14.5 78q0 40 11 139q-131 -22 -209 -40zM362 306l80 12q9 139 21 200
q-39 -46 -156 -221q18 4 55 9z" />
    <glyph glyph-name="uni1EB6" unicode="&#x1eb6;" horiz-adv-x="656" 
d="M456 733.5q-37 24.5 -37 69.5q0 55 53 55q33 0 34 -32q1 -20 11 -28t45 -8q32 0 50 6.5t28.5 19t23.5 37.5q7 6 16.5 10t17.5 4q35 0 44 -14q-10 -70 -63 -106t-125 -38q-61 0 -98 24.5zM228 182q-24 -38 -31 -51q-21 -37 -37.5 -61.5t-35.5 -43.5q-21 -21 -34.5 -30
t-31.5 -9q-30 0 -52.5 13.5t-22.5 27.5q2 2 22 44.5t74 106.5q0 8 -5 20t-5 14q0 29 91 70q51 76 107.5 150t138.5 175q20 25 51 41t62 16q32 0 48 -6t20.5 -16t4.5 -28q-4 -30 -5 -45q-15 -121 -22.5 -207.5t-7.5 -172.5q0 -79 7 -145q-3 -24 -21 -43.5t-42 -19.5
q-46 0 -60.5 23t-14.5 78q0 40 11 139q-131 -22 -209 -40zM362 306l80 12q9 139 21 200q-39 -46 -156 -221q18 4 55 9zM202 -196.5q-21 18.5 -21 41.5q0 34 28 59t62 25q25 0 45 -21.5t20 -46.5q0 -32 -27 -54t-63 -22q-23 0 -44 18.5z" />
    <glyph glyph-name="uni1EB0" unicode="&#x1eb0;" horiz-adv-x="656" 
d="M615 862q0 -12 -6 -17t-20 -5q-13 0 -25.5 7t-36.5 25l-34 24q-30 20 -40 29.5t-10 18.5q0 10 29.5 23.5t45.5 13.5q11 0 41.5 -38t53.5 -73q2 -4 2 -8zM456 733.5q-37 24.5 -37 69.5q0 55 53 55q27 0 28 -36q1 -19 12.5 -27.5t47.5 -8.5q32 0 50.5 7.5t29.5 21t24 38.5
q7 6 16.5 10t17.5 4q35 0 44 -14q-10 -70 -63 -106t-125 -38q-61 0 -98 24.5zM228 182q-24 -38 -31 -51q-21 -37 -37.5 -61.5t-35.5 -43.5q-21 -21 -34.5 -30t-31.5 -9q-30 0 -52.5 13.5t-22.5 27.5q2 2 22 44.5t74 106.5q0 8 -5 20t-5 14q0 29 91 70q51 76 107.5 150
t138.5 175q20 25 51 41t62 16q32 0 48 -6t20.5 -16t4.5 -28q-4 -30 -5 -45q-15 -121 -22.5 -207.5t-7.5 -172.5q0 -79 7 -145q-3 -24 -21 -43.5t-42 -19.5q-46 0 -60.5 23t-14.5 78q0 40 11 139q-131 -22 -209 -40zM362 306l80 12q9 139 21 200q-39 -46 -156 -221q18 4 55 9
z" />
    <glyph glyph-name="uni1EB2" unicode="&#x1eb2;" horiz-adv-x="656" 
d="M594 845q-5 -8 -10 -12t-17 -4q-11 0 -22.5 3.5t-11.5 12.5l9 25q5 12 15.5 18.5t28.5 12.5q20 7 29.5 14t9.5 22q0 6 -6.5 11.5t-22.5 5.5q-21 0 -35 -8q-12 -6 -21 -6q-8 0 -14 8t-6 17q0 23 26 32t61 9t61 -15.5t26 -44.5q0 -50 -81 -82q-13 -4 -19 -19zM456 733.5
q-37 24.5 -37 69.5q0 55 53 55q27 0 28 -36q1 -19 12.5 -27.5t47.5 -8.5q32 0 50.5 7.5t29.5 21t24 38.5q7 6 16.5 10t17.5 4q35 0 44 -14q-10 -70 -63 -106t-125 -38q-61 0 -98 24.5zM228 182q-24 -38 -31 -51q-21 -37 -37.5 -61.5t-35.5 -43.5q-21 -21 -34.5 -30t-31.5 -9
q-30 0 -52.5 13.5t-22.5 27.5q2 2 22 44.5t74 106.5q0 8 -5 20t-5 14q0 29 91 70q51 76 107.5 150t138.5 175q20 25 51 41t62 16q32 0 48 -6t20.5 -16t4.5 -28q-4 -30 -5 -45q-15 -121 -22.5 -207.5t-7.5 -172.5q0 -79 7 -145q-3 -24 -21 -43.5t-42 -19.5q-46 0 -60.5 23
t-14.5 78q0 40 11 139q-131 -22 -209 -40zM362 306l80 12q9 139 21 200q-39 -46 -156 -221q18 4 55 9z" />
    <glyph glyph-name="uni1EB4" unicode="&#x1eb4;" horiz-adv-x="656" 
d="M455 892q-10 5 -14 15t-4 32q0 16 18 33t44 28t48 11q39 0 79 -28q18 -12 30 -17t27 -5q11 0 20 5.5t17.5 13t13.5 11.5q5 3 8 3q4 0 7.5 -4t4.5 -4q2 0 2 -7q0 -23 -17 -43t-39.5 -32t-36.5 -12q-20 0 -34.5 5.5t-40.5 20.5q-17 12 -29.5 16.5t-26.5 4.5q-28 0 -77 -47z
M456 733.5q-37 24.5 -37 69.5q0 55 53 55q27 0 28 -36q1 -19 12.5 -27.5t47.5 -8.5q32 0 50.5 7.5t29.5 21t24 38.5q7 6 16.5 10t17.5 4q35 0 44 -14q-10 -70 -63 -106t-125 -38q-61 0 -98 24.5zM228 182q-24 -38 -31 -51q-21 -37 -37.5 -61.5t-35.5 -43.5
q-21 -21 -34.5 -30t-31.5 -9q-30 0 -52.5 13.5t-22.5 27.5q2 2 22 44.5t74 106.5q0 8 -5 20t-5 14q0 29 91 70q51 76 107.5 150t138.5 175q20 25 51 41t62 16q32 0 48 -6t20.5 -16t4.5 -28q-4 -30 -5 -45q-15 -121 -22.5 -207.5t-7.5 -172.5q0 -79 7 -145q-3 -24 -21 -43.5
t-42 -19.5q-46 0 -60.5 23t-14.5 78q0 40 11 139q-131 -22 -209 -40zM362 306l80 12q9 139 21 200q-39 -46 -156 -221q18 4 55 9z" />
    <glyph glyph-name="uni01CD" unicode="&#x1cd;" horiz-adv-x="656" 
d="M511.5 722.5q-15.5 9.5 -38.5 39.5l-51 66q-10 13 -10 25q0 16 15.5 27.5t36.5 11.5q20 0 38 -21l55 -66q60 52 88.5 73t41.5 21q20 0 35.5 -9t15.5 -24q0 -11 -3.5 -20t-17.5 -20l-22 -18q-75 -62 -103 -83q-15 -12 -45 -12q-20 0 -35.5 9.5zM228 182q-24 -38 -31 -51
q-21 -37 -37.5 -61.5t-35.5 -43.5q-21 -21 -34.5 -30t-31.5 -9q-30 0 -52.5 13.5t-22.5 27.5q2 2 22 44.5t74 106.5q0 8 -5 20t-5 14q0 29 91 70q51 76 107.5 150t138.5 175q20 25 51 41t62 16q32 0 48 -6t20.5 -16t4.5 -28q-4 -30 -5 -45q-15 -121 -22.5 -207.5
t-7.5 -172.5q0 -79 7 -145q-3 -24 -21 -43.5t-42 -19.5q-46 0 -60.5 23t-14.5 78q0 40 11 139q-131 -22 -209 -40zM362 306l80 12q9 139 21 200q-39 -46 -156 -221q18 4 55 9z" />
    <glyph glyph-name="Acircumflex" unicode="&#xc2;" horiz-adv-x="656" 
d="M624.5 913.5q15.5 -9.5 38.5 -39.5l51 -66q10 -13 10 -25q0 -16 -15.5 -27.5t-36.5 -11.5q-20 0 -38 21l-55 66q-60 -52 -88.5 -73t-41.5 -21q-20 0 -35.5 9t-15.5 24q0 11 3.5 20t17.5 20l22 18q75 62 103 83q15 12 45 12q20 0 35.5 -9.5zM228 182q-24 -38 -31 -51
q-21 -37 -37.5 -61.5t-35.5 -43.5q-21 -21 -34.5 -30t-31.5 -9q-30 0 -52.5 13.5t-22.5 27.5q2 2 22 44.5t74 106.5q0 8 -5 20t-5 14q0 29 91 70q51 76 107.5 150t138.5 175q20 25 51 41t62 16q32 0 48 -6t20.5 -16t4.5 -28q-4 -30 -5 -45q-15 -121 -22.5 -207.5
t-7.5 -172.5q0 -79 7 -145q-3 -24 -21 -43.5t-42 -19.5q-46 0 -60.5 23t-14.5 78q0 40 11 139q-131 -22 -209 -40zM362 306l80 12q9 139 21 200q-39 -46 -156 -221q18 4 55 9z" />
    <glyph glyph-name="uni1EA4" unicode="&#x1ea4;" horiz-adv-x="656" 
d="M738.5 934q30.5 38 41.5 38q16 0 45.5 -13.5t29.5 -23.5q0 -9 -10 -18.5t-40 -29.5l-34 -24q-24 -18 -36.5 -25t-25.5 -7q-14 0 -20 5t-6 17q0 4 2 8q23 35 53.5 73zM615.5 878.5q15.5 -9.5 38.5 -39.5l51 -66q10 -13 10 -25q0 -16 -15.5 -27.5t-36.5 -11.5q-20 0 -38 21
l-55 66q-60 -52 -88.5 -73t-41.5 -21q-20 0 -35.5 9t-15.5 24q0 11 3.5 20t17.5 20l22 18q75 62 103 83q15 12 45 12q20 0 35.5 -9.5zM228 182q-24 -38 -31 -51q-21 -37 -37.5 -61.5t-35.5 -43.5q-21 -21 -34.5 -30t-31.5 -9q-30 0 -52.5 13.5t-22.5 27.5q2 2 22 44.5
t74 106.5q0 8 -5 20t-5 14q0 29 91 70q51 76 107.5 150t138.5 175q20 25 51 41t62 16q32 0 48 -6t20.5 -16t4.5 -28q-4 -30 -5 -45q-15 -121 -22.5 -207.5t-7.5 -172.5q0 -79 7 -145q-3 -24 -21 -43.5t-42 -19.5q-46 0 -60.5 23t-14.5 78q0 40 11 139q-131 -22 -209 -40z
M362 306l80 12q9 139 21 200q-39 -46 -156 -221q18 4 55 9z" />
    <glyph glyph-name="uni1EAC" unicode="&#x1eac;" horiz-adv-x="656" 
d="M615.5 878.5q15.5 -9.5 38.5 -39.5l51 -66q10 -13 10 -25q0 -16 -15.5 -27.5t-36.5 -11.5q-20 0 -38 21l-55 66q-60 -52 -88.5 -73t-41.5 -21q-20 0 -35.5 9t-15.5 24q0 11 3.5 20t17.5 20l22 18q75 62 103 83q15 12 45 12q20 0 35.5 -9.5zM228 182q-24 -38 -31 -51
q-21 -37 -37.5 -61.5t-35.5 -43.5q-21 -21 -34.5 -30t-31.5 -9q-30 0 -52.5 13.5t-22.5 27.5q2 2 22 44.5t74 106.5q0 8 -5 20t-5 14q0 29 91 70q51 76 107.5 150t138.5 175q20 25 51 41t62 16q32 0 48 -6t20.5 -16t4.5 -28q-4 -30 -5 -45q-15 -121 -22.5 -207.5
t-7.5 -172.5q0 -79 7 -145q-3 -24 -21 -43.5t-42 -19.5q-46 0 -60.5 23t-14.5 78q0 40 11 139q-131 -22 -209 -40zM362 306l80 12q9 139 21 200q-39 -46 -156 -221q18 4 55 9zM202 -196.5q-21 18.5 -21 41.5q0 34 28 59t62 25q25 0 45 -21.5t20 -46.5q0 -32 -27 -54t-63 -22
q-23 0 -44 18.5z" />
    <glyph glyph-name="uni1EA6" unicode="&#x1ea6;" horiz-adv-x="656" 
d="M432 853q0 -12 -6 -17t-20 -5q-13 0 -25.5 7t-36.5 25l-34 24q-30 20 -40 29.5t-10 18.5q0 10 29.5 23.5t45.5 13.5q11 0 41.5 -38t53.5 -73q2 -4 2 -8zM615.5 878.5q15.5 -9.5 38.5 -39.5l51 -66q10 -13 10 -25q0 -16 -15.5 -27.5t-36.5 -11.5q-20 0 -38 21l-55 66
q-60 -52 -88.5 -73t-41.5 -21q-20 0 -35.5 9t-15.5 24q0 11 3.5 20t17.5 20l22 18q75 62 103 83q15 12 45 12q20 0 35.5 -9.5zM228 182q-24 -38 -31 -51q-21 -37 -37.5 -61.5t-35.5 -43.5q-21 -21 -34.5 -30t-31.5 -9q-30 0 -52.5 13.5t-22.5 27.5q2 2 22 44.5t74 106.5
q0 8 -5 20t-5 14q0 29 91 70q51 76 107.5 150t138.5 175q20 25 51 41t62 16q32 0 48 -6t20.5 -16t4.5 -28q-4 -30 -5 -45q-15 -121 -22.5 -207.5t-7.5 -172.5q0 -79 7 -145q-3 -24 -21 -43.5t-42 -19.5q-46 0 -60.5 23t-14.5 78q0 40 11 139q-131 -22 -209 -40zM362 306
l80 12q9 139 21 200q-39 -46 -156 -221q18 4 55 9z" />
    <glyph glyph-name="uni1EA8" unicode="&#x1ea8;" horiz-adv-x="656" 
d="M729 828q-13 0 -20.5 4.5t-7.5 11.5q0 4 13 52q3 13 14 19.5t30 12.5q20 7 29.5 13.5t9.5 21.5q0 6 -6.5 11.5t-22.5 5.5q-21 0 -35 -8q-12 -6 -21 -6q-8 0 -14 8t-6 17q0 23 26 32t61 9t61 -15.5t26 -44.5q0 -52 -70 -80q-14 -5 -19.5 -12.5t-7.5 -16t-4 -13.5
q-11 -22 -36 -22zM615.5 878.5q15.5 -9.5 38.5 -39.5l51 -66q10 -13 10 -25q0 -16 -15.5 -27.5t-36.5 -11.5q-20 0 -38 21l-55 66q-60 -52 -88.5 -73t-41.5 -21q-20 0 -35.5 9t-15.5 24q0 11 3.5 20t17.5 20l22 18q75 62 103 83q15 12 45 12q20 0 35.5 -9.5zM228 182
q-24 -38 -31 -51q-21 -37 -37.5 -61.5t-35.5 -43.5q-21 -21 -34.5 -30t-31.5 -9q-30 0 -52.5 13.5t-22.5 27.5q2 2 22 44.5t74 106.5q0 8 -5 20t-5 14q0 29 91 70q51 76 107.5 150t138.5 175q20 25 51 41t62 16q32 0 48 -6t20.5 -16t4.5 -28q-4 -30 -5 -45
q-15 -121 -22.5 -207.5t-7.5 -172.5q0 -79 7 -145q-3 -24 -21 -43.5t-42 -19.5q-46 0 -60.5 23t-14.5 78q0 40 11 139q-131 -22 -209 -40zM362 306l80 12q9 139 21 200q-39 -46 -156 -221q18 4 55 9z" />
    <glyph glyph-name="uni1EAA" unicode="&#x1eaa;" horiz-adv-x="656" 
d="M472 915q-10 5 -14 15t-4 32q0 16 18 33t44 28t48 11q39 0 79 -28q18 -12 30 -17t27 -5q11 0 20 5.5t17.5 13t13.5 11.5q5 3 8 3q4 0 7.5 -4t4.5 -4q2 0 2 -7q0 -23 -17 -43t-39.5 -32t-36.5 -12q-20 0 -34.5 5.5t-40.5 20.5q-17 12 -29.5 16.5t-26.5 4.5q-28 0 -77 -47z
M615.5 878.5q15.5 -9.5 38.5 -39.5l51 -66q10 -13 10 -25q0 -16 -15.5 -27.5t-36.5 -11.5q-20 0 -38 21l-55 66q-60 -52 -88.5 -73t-41.5 -21q-20 0 -35.5 9t-15.5 24q0 11 3.5 20t17.5 20l22 18q75 62 103 83q15 12 45 12q20 0 35.5 -9.5zM228 182q-24 -38 -31 -51
q-21 -37 -37.5 -61.5t-35.5 -43.5q-21 -21 -34.5 -30t-31.5 -9q-30 0 -52.5 13.5t-22.5 27.5q2 2 22 44.5t74 106.5q0 8 -5 20t-5 14q0 29 91 70q51 76 107.5 150t138.5 175q20 25 51 41t62 16q32 0 48 -6t20.5 -16t4.5 -28q-4 -30 -5 -45q-15 -121 -22.5 -207.5
t-7.5 -172.5q0 -79 7 -145q-3 -24 -21 -43.5t-42 -19.5q-46 0 -60.5 23t-14.5 78q0 40 11 139q-131 -22 -209 -40zM362 306l80 12q9 139 21 200q-39 -46 -156 -221q18 4 55 9z" />
    <glyph glyph-name="uni0200" unicode="&#x200;" horiz-adv-x="656" 
d="M513 721.5q-5 -14.5 -15 -14.5l-4 1q-10 3 -20.5 13.5t-25.5 29.5q-24 27 -38 40.5t-32 19.5q-11 4 -17 9.5t-6 18.5q0 23 12.5 45t33.5 22q53 0 111 -132q6 -13 6 -26q0 -12 -5 -26.5zM688 721.5q-5 -14.5 -15 -14.5l-4 1q-10 3 -20.5 13.5t-25.5 29.5q-24 27 -38 40.5
t-32 19.5q-11 4 -17 9.5t-6 18.5q0 23 12.5 45t33.5 22q53 0 111 -132q6 -13 6 -26q0 -12 -5 -26.5zM228 182q-24 -38 -31 -51q-21 -37 -37.5 -61.5t-35.5 -43.5q-21 -21 -34.5 -30t-31.5 -9q-30 0 -52.5 13.5t-22.5 27.5q2 2 22 44.5t74 106.5q0 8 -5 20t-5 14q0 29 91 70
q51 76 107.5 150t138.5 175q20 25 51 41t62 16q32 0 48 -6t20.5 -16t4.5 -28q-4 -30 -5 -45q-15 -121 -22.5 -207.5t-7.5 -172.5q0 -79 7 -145q-3 -24 -21 -43.5t-42 -19.5q-46 0 -60.5 23t-14.5 78q0 40 11 139q-131 -22 -209 -40zM362 306l80 12q9 139 21 200
q-39 -46 -156 -221q18 4 55 9z" />
    <glyph glyph-name="Adieresis" unicode="&#xc4;" horiz-adv-x="656" 
d="M608 738q-23 20 -23 42q0 35 26 57.5t60 22.5q26 0 49 -20t23 -44q0 -32 -26.5 -55t-62.5 -23q-23 0 -46 20zM382 732.5q-21 18.5 -21 41.5q0 34 28 59t62 25q25 0 45 -21.5t20 -46.5q0 -32 -27 -54t-63 -22q-23 0 -44 18.5zM228 182q-24 -38 -31 -51
q-21 -37 -37.5 -61.5t-35.5 -43.5q-21 -21 -34.5 -30t-31.5 -9q-30 0 -52.5 13.5t-22.5 27.5q2 2 22 44.5t74 106.5q0 8 -5 20t-5 14q0 29 91 70q51 76 107.5 150t138.5 175q20 25 51 41t62 16q32 0 48 -6t20.5 -16t4.5 -28q-4 -30 -5 -45q-15 -121 -22.5 -207.5
t-7.5 -172.5q0 -79 7 -145q-3 -24 -21 -43.5t-42 -19.5q-46 0 -60.5 23t-14.5 78q0 40 11 139q-131 -22 -209 -40zM362 306l80 12q9 139 21 200q-39 -46 -156 -221q18 4 55 9z" />
    <glyph glyph-name="uni1EA0" unicode="&#x1ea0;" horiz-adv-x="656" 
d="M228 182q-24 -38 -31 -51q-21 -37 -37.5 -61.5t-35.5 -43.5q-21 -21 -34.5 -30t-31.5 -9q-30 0 -52.5 13.5t-22.5 27.5q2 2 22 44.5t74 106.5q0 8 -5 20t-5 14q0 29 91 70q51 76 107.5 150t138.5 175q20 25 51 41t62 16q32 0 48 -6t20.5 -16t4.5 -28q-4 -30 -5 -45
q-15 -121 -22.5 -207.5t-7.5 -172.5q0 -79 7 -145q-3 -24 -21 -43.5t-42 -19.5q-46 0 -60.5 23t-14.5 78q0 40 11 139q-131 -22 -209 -40zM362 306l80 12q9 139 21 200q-39 -46 -156 -221q18 4 55 9zM202 -196.5q-21 18.5 -21 41.5q0 34 28 59t62 25q25 0 45 -21.5t20 -46.5
q0 -32 -27 -54t-63 -22q-23 0 -44 18.5z" />
    <glyph glyph-name="Agrave" unicode="&#xc0;" horiz-adv-x="656" 
d="M617 744q0 -17 -9 -24t-28 -7q-26 0 -58 16.5t-93 59.5q-43 30 -57 43t-14 26q0 16 27 35t48 19q11 0 49.5 -29.5t78 -67.5t53.5 -59q3 -4 3 -12zM228 182q-24 -38 -31 -51q-21 -37 -37.5 -61.5t-35.5 -43.5q-21 -21 -34.5 -30t-31.5 -9q-30 0 -52.5 13.5t-22.5 27.5
q2 2 22 44.5t74 106.5q0 8 -5 20t-5 14q0 29 91 70q51 76 107.5 150t138.5 175q20 25 51 41t62 16q32 0 48 -6t20.5 -16t4.5 -28q-4 -30 -5 -45q-15 -121 -22.5 -207.5t-7.5 -172.5q0 -79 7 -145q-3 -24 -21 -43.5t-42 -19.5q-46 0 -60.5 23t-14.5 78q0 40 11 139
q-131 -22 -209 -40zM362 306l80 12q9 139 21 200q-39 -46 -156 -221q18 4 55 9z" />
    <glyph glyph-name="uni1EA2" unicode="&#x1ea2;" horiz-adv-x="656" 
d="M542 703q-16 0 -25 5t-9 14q0 7 16 66q4 16 17 24t38 16t37 16.5t12 26.5q0 8 -8.5 15t-28.5 7q-21 0 -31.5 -4.5t-11.5 -5.5t-8.5 -4.5t-18.5 -3.5q-10 0 -17.5 10t-7.5 21q0 29 32.5 40t76.5 11q43 0 76 -19t33 -56q0 -38 -24 -60.5t-62 -37.5q-18 -7 -25 -17
t-10 -20.5t-5 -16.5q-15 -27 -46 -27zM228 182q-24 -38 -31 -51q-21 -37 -37.5 -61.5t-35.5 -43.5q-21 -21 -34.5 -30t-31.5 -9q-30 0 -52.5 13.5t-22.5 27.5q2 2 22 44.5t74 106.5q0 8 -5 20t-5 14q0 29 91 70q51 76 107.5 150t138.5 175q20 25 51 41t62 16q32 0 48 -6
t20.5 -16t4.5 -28q-4 -30 -5 -45q-15 -121 -22.5 -207.5t-7.5 -172.5q0 -79 7 -145q-3 -24 -21 -43.5t-42 -19.5q-46 0 -60.5 23t-14.5 78q0 40 11 139q-131 -22 -209 -40zM362 306l80 12q9 139 21 200q-39 -46 -156 -221q18 4 55 9z" />
    <glyph glyph-name="uni0202" unicode="&#x202;" horiz-adv-x="650" 
d="M665.5 834q41.5 -22 41.5 -65q0 -56 -49 -56q-41 0 -43 28q-2 34 -56 34q-87 0 -104 -56q-2 -8 -14.5 -13.5t-21.5 -5.5q-25 0 -38 5t-13 19q0 123 197 132q59 0 100.5 -22zM228 182q-24 -38 -31 -51q-21 -37 -37.5 -61.5t-35.5 -43.5q-21 -21 -34.5 -30t-31.5 -9
q-30 0 -52.5 13.5t-22.5 27.5q2 2 22 44.5t74 106.5q0 8 -5 20t-5 14q0 29 91 70q51 76 107.5 150t138.5 175q20 25 51 41t62 16q32 0 48 -6t20.5 -16t4.5 -28q-4 -30 -5 -45q-15 -121 -22.5 -207.5t-7.5 -172.5q0 -79 7 -145q-3 -24 -21 -43.5t-42 -19.5q-46 0 -60.5 23
t-14.5 78q0 40 11 139q-131 -22 -209 -40zM362 306l80 12q9 139 21 200q-39 -46 -156 -221q18 4 55 9z" />
    <glyph glyph-name="Amacron" unicode="&#x100;" horiz-adv-x="656" 
d="M687 739q-19 -13 -49 -15l-209 -11q-28 -4 -43 -4q-44 3 -47 40v8q2 22 14.5 34t39.5 17.5t77 7.5l189 8q47 -3 48 -40v-7q-1 -25 -20 -38zM228 182q-24 -38 -31 -51q-21 -37 -37.5 -61.5t-35.5 -43.5q-21 -21 -34.5 -30t-31.5 -9q-30 0 -52.5 13.5t-22.5 27.5
q2 2 22 44.5t74 106.5q0 8 -5 20t-5 14q0 29 91 70q51 76 107.5 150t138.5 175q20 25 51 41t62 16q32 0 48 -6t20.5 -16t4.5 -28q-4 -30 -5 -45q-15 -121 -22.5 -207.5t-7.5 -172.5q0 -79 7 -145q-3 -24 -21 -43.5t-42 -19.5q-46 0 -60.5 23t-14.5 78q0 40 11 139
q-131 -22 -209 -40zM362 306l80 12q9 139 21 200q-39 -46 -156 -221q18 4 55 9z" />
    <glyph glyph-name="Aogonek" unicode="&#x104;" horiz-adv-x="639" 
d="M579 -175q0 -25 -33 -35t-67 -10q-48 0 -81.5 25t-33.5 79q0 26 25.5 55.5t67.5 51.5q-18 9 -24.5 31t-6.5 61q0 40 11 139q-131 -22 -209 -40q-24 -38 -31 -51q-21 -37 -37.5 -61.5t-35.5 -43.5q-21 -21 -34.5 -30t-31.5 -9q-30 0 -52.5 13.5t-22.5 27.5q2 2 22 44.5
t74 106.5q0 8 -5 20t-5 14q0 29 91 70q51 76 107.5 150t138.5 175q20 25 51 41t62 16q32 0 48 -6t20.5 -16t4.5 -28q-4 -30 -5 -45q-15 -121 -22.5 -207.5t-7.5 -172.5q0 -79 7 -145q-3 -27 -23 -45h2q-37 -34 -54 -60.5t-17 -55.5q0 -45 45 -45q23 0 48 6q14 -10 14 -20z
M463 518q-39 -46 -156 -221q18 4 55 9l80 12q9 139 21 200z" />
    <glyph glyph-name="Aring" unicode="&#xc5;" horiz-adv-x="656" 
d="M476.5 715.5q-25.5 27.5 -25.5 68.5q0 53 39.5 85t101.5 32q37 0 65.5 -29t28.5 -73q0 -30 -19.5 -55.5t-52 -40.5t-69.5 -15q-43 0 -68.5 27.5zM599 756.5q18 16.5 18 47.5q0 18 -10.5 28.5t-26.5 10.5q-64 0 -64 -63q0 -18 13 -29t28 -11q24 0 42 16.5zM228 182
q-24 -38 -31 -51q-21 -37 -37.5 -61.5t-35.5 -43.5q-21 -21 -34.5 -30t-31.5 -9q-30 0 -52.5 13.5t-22.5 27.5q2 2 22 44.5t74 106.5q0 8 -5 20t-5 14q0 29 91 70q51 76 107.5 150t138.5 175q20 25 51 41t62 16q32 0 48 -6t20.5 -16t4.5 -28q-4 -30 -5 -45
q-15 -121 -22.5 -207.5t-7.5 -172.5q0 -79 7 -145q-3 -24 -21 -43.5t-42 -19.5q-46 0 -60.5 23t-14.5 78q0 40 11 139q-131 -22 -209 -40zM362 306l80 12q9 139 21 200q-39 -46 -156 -221q18 4 55 9z" />
    <glyph glyph-name="Aringacute" unicode="&#x1fa;" horiz-adv-x="656" 
d="M780.5 1034.5q27.5 -17.5 27.5 -30.5q0 -12 -14.5 -24t-57.5 -38q-60 -37 -92.5 -52t-59.5 -15q-20 0 -29 6t-9 21q0 7 3 11q14 18 54 52t79 60.5t50 26.5q21 0 48.5 -17.5zM644.5 821q28.5 -29 28.5 -73q0 -34 -24.5 -61.5t-62.5 -40.5q6 -10 6 -31q-4 -30 -5 -45
q-15 -121 -22.5 -207.5t-7.5 -172.5q0 -79 7 -145q-3 -24 -21 -43.5t-42 -19.5q-46 0 -60.5 23t-14.5 78q0 40 11 139q-131 -22 -209 -40q-24 -38 -31 -51q-21 -37 -37.5 -61.5t-35.5 -43.5q-21 -21 -34.5 -30t-31.5 -9q-30 0 -52.5 13.5t-22.5 27.5q2 2 22 44.5t74 106.5
q0 8 -5 20t-5 14q0 29 91 70q51 76 107.5 150t138.5 175q28 33 67 48q-17 13 -26 33t-9 44q0 53 39.5 85t101.5 32q37 0 65.5 -29zM586 705.5q18 16.5 18 47.5q0 18 -10.5 28.5t-26.5 10.5q-64 0 -64 -63q0 -18 13 -29t28 -11q24 0 42 16.5zM463 518q-39 -46 -156 -221
q18 4 55 9l80 12q9 139 21 200z" />
    <glyph glyph-name="Atilde" unicode="&#xc3;" horiz-adv-x="656" 
d="M397 722q-12 7 -17 17.5t-5 36.5q0 20 21 42t50.5 36.5t53.5 14.5q44 0 90 -35q19 -15 34 -21t32 -6q12 0 22 6.5t20 16t15 14.5q4 4 9 4q4 0 8 -5t5 -5q2 0 2 -9q0 -28 -19 -52.5t-44 -39.5t-40 -15q-23 0 -41.5 7.5t-44.5 24.5q-19 15 -33.5 21t-30.5 6q-33 0 -87 -59z
M228 182q-24 -38 -31 -51q-21 -37 -37.5 -61.5t-35.5 -43.5q-21 -21 -34.5 -30t-31.5 -9q-30 0 -52.5 13.5t-22.5 27.5q2 2 22 44.5t74 106.5q0 8 -5 20t-5 14q0 29 91 70q51 76 107.5 150t138.5 175q20 25 51 41t62 16q32 0 48 -6t20.5 -16t4.5 -28q-4 -30 -5 -45
q-15 -121 -22.5 -207.5t-7.5 -172.5q0 -79 7 -145q-3 -24 -21 -43.5t-42 -19.5q-46 0 -60.5 23t-14.5 78q0 40 11 139q-131 -22 -209 -40zM362 306l80 12q9 139 21 200q-39 -46 -156 -221q18 4 55 9z" />
    <glyph glyph-name="AE" unicode="&#xc6;" horiz-adv-x="856" 
d="M691 291q-87 -10 -147 -20l-31 -125l-12 -45q112 22 254 35q39 -17 39 -46q0 -18 -18 -35t-41 -24l-62 -8q-127 -14 -204 -28q-10 -7 -41 -7q-28 0 -48 26t-20 54q0 11 3 21l31 125l-22 -4q-106 -19 -143 -28q-24 -38 -31 -51q-21 -37 -37.5 -61.5t-35.5 -43.5
q-21 -21 -35 -30t-32 -9q-30 0 -52.5 13.5t-22.5 27.5q2 2 22 44.5t74 106.5q0 8 -5 20t-5 14q0 29 91 70q51 76 107.5 150t138.5 175q18 22 49 32.5t66 10.5q45 0 112.5 5t127.5 11q25 2 65 5.5t57 3.5q36 -19 36 -48q0 -18 -19.5 -33.5t-43.5 -21.5q-7 -1 -15.5 -1
t-17.5 -1q-180 -14 -218 -17q-18 -71 -42 -178q64 10 106 16t94 10q39 -17 39 -46q0 -18 -18 -35t-41 -24zM354 304q30 3 65 9l56 219q-31 -39 -81.5 -108t-88.5 -127q13 4 49 7z" />
    <glyph glyph-name="AEacute" unicode="&#x1fc;" horiz-adv-x="856" 
d="M630.5 815q39.5 38 78 67.5t49.5 29.5q21 0 48 -19t27 -35q0 -13 -14 -26t-57 -43q-61 -43 -93 -59.5t-58 -16.5q-19 0 -28 7t-9 24q0 8 3 12q14 21 53.5 59zM691 291q-87 -10 -147 -20l-31 -125l-12 -45q112 22 254 35q39 -17 39 -46q0 -18 -18 -35t-41 -24l-62 -8
q-127 -14 -204 -28q-10 -7 -41 -7q-28 0 -48 26t-20 54q0 11 3 21l31 125l-22 -4q-106 -19 -143 -28q-24 -38 -31 -51q-21 -37 -37.5 -61.5t-35.5 -43.5q-21 -21 -35 -30t-32 -9q-30 0 -52.5 13.5t-22.5 27.5q2 2 22 44.5t74 106.5q0 8 -5 20t-5 14q0 29 91 70
q51 76 107.5 150t138.5 175q18 22 49 32.5t66 10.5q45 0 112.5 5t127.5 11q25 2 65 5.5t57 3.5q36 -19 36 -48q0 -18 -19.5 -33.5t-43.5 -21.5q-7 -1 -15.5 -1t-17.5 -1q-180 -14 -218 -17q-18 -71 -42 -178q64 10 106 16t94 10q39 -17 39 -46q0 -18 -18 -35t-41 -24z
M354 304q30 3 65 9l56 219q-31 -39 -81.5 -108t-88.5 -127q13 4 49 7z" />
    <glyph glyph-name="B" unicode="B" horiz-adv-x="631" 
d="M543.5 296.5q22.5 -35.5 22.5 -83.5q0 -10 -1 -15q-19 -122 -102 -173.5t-196 -51.5q-29 0 -62.5 6.5t-54.5 18.5q-15 -11 -56 -11q-27 0 -38 21.5t-11 52.5q0 11 3 21l112 448q-71 -24 -88 -50q-31 33 -31 61q0 22 17 45q40 26 130 49q8 21 20.5 29t37.5 8q21 0 39.5 -4
t26.5 -12q48 6 97 6q102 0 150 -40.5t48 -112.5q0 -61 -43 -104.5t-110 -61.5q67 -11 89.5 -46.5zM470 497q0 31 -19 48.5t-65 17.5q-41 0 -91 -5l-44 -189q219 18 219 128zM341.5 86.5q42.5 16.5 69.5 47t27 71.5q0 34 -23.5 58.5t-65.5 24.5q-79 0 -114 -6
q-16 -54 -53 -200q32 -12 72 -12q45 0 87.5 16.5z" />
    <glyph glyph-name="C" unicode="C" horiz-adv-x="624" 
d="M509.5 83.5q-44.5 -45.5 -112 -75t-147.5 -29.5q-122 0 -179 59.5t-57 152.5q0 132 59 239.5t159 169t216 61.5q46 0 84 -21t60 -60.5t22 -92.5q0 -30 -22.5 -51t-60.5 -21q-30 0 -40.5 16t-10.5 41l1 32q0 18 -20 35t-37 17q-56 0 -123 -50.5t-113 -136t-46 -185.5
q0 -46 36 -75t91 -29q18 0 47 12t53.5 30t32.5 35q12 25 34 56t44 31q51 0 69.5 -22t19.5 -48q-15 -45 -59.5 -90.5z" />
    <glyph glyph-name="Cacute" unicode="&#x106;" horiz-adv-x="624" 
d="M405.5 815q39.5 38 78 67.5t49.5 29.5q21 0 48 -19t27 -35q0 -13 -14 -26t-57 -43q-61 -43 -93 -59.5t-58 -16.5q-19 0 -28 7t-9 24q0 8 3 12q14 21 53.5 59zM509.5 83.5q-44.5 -45.5 -112 -75t-147.5 -29.5q-122 0 -179 59.5t-57 152.5q0 132 59 239.5t159 169t216 61.5
q46 0 84 -21t60 -60.5t22 -92.5q0 -30 -22.5 -51t-60.5 -21q-30 0 -40.5 16t-10.5 41l1 32q0 18 -20 35t-37 17q-56 0 -123 -50.5t-113 -136t-46 -185.5q0 -46 36 -75t91 -29q18 0 47 12t53.5 30t32.5 35q12 25 34 56t44 31q51 0 69.5 -22t19.5 -48q-15 -45 -59.5 -90.5z
" />
    <glyph glyph-name="Ccaron" unicode="&#x10c;" horiz-adv-x="624" 
d="M413.5 722.5q-15.5 9.5 -38.5 39.5l-51 66q-10 13 -10 25q0 16 15.5 27.5t36.5 11.5q20 0 38 -21l55 -66q60 52 88.5 73t41.5 21q20 0 35.5 -9t15.5 -24q0 -11 -3.5 -20t-17.5 -20l-22 -18q-75 -62 -103 -83q-15 -12 -45 -12q-20 0 -35.5 9.5zM509.5 83.5
q-44.5 -45.5 -112 -75t-147.5 -29.5q-122 0 -179 59.5t-57 152.5q0 132 59 239.5t159 169t216 61.5q46 0 84 -21t60 -60.5t22 -92.5q0 -30 -22.5 -51t-60.5 -21q-30 0 -40.5 16t-10.5 41l1 32q0 18 -20 35t-37 17q-56 0 -123 -50.5t-113 -136t-46 -185.5q0 -46 36 -75
t91 -29q18 0 47 12t53.5 30t32.5 35q12 25 34 56t44 31q51 0 69.5 -22t19.5 -48q-15 -45 -59.5 -90.5z" />
    <glyph glyph-name="Ccedilla" unicode="&#xc7;" horiz-adv-x="624" 
d="M490.5 431q-10.5 16 -10.5 41l1 32q0 18 -20 35t-37 17q-56 0 -123 -50.5t-113 -136t-46 -185.5q0 -46 36 -75t91 -29q18 0 47 12t53.5 30t32.5 35q12 25 34 56t44 31q51 0 69.5 -22t19.5 -48q-15 -45 -59.5 -90.5t-112 -75t-147.5 -29.5h-3q-23 -36 -28 -47q18 3 34 3
q38 0 70 -22.5t32 -52.5q0 -52 -47 -81t-127 -29q-42 0 -80 22t-38 52q0 4 12.5 8.5t27.5 4.5t25 -3.5t23 -9.5q12 -6 19.5 -9t18.5 -3q33 0 51 11t18 31q0 14 -11 21t-28 7q-6 0 -13.5 -2t-10.5 -3q-13 -5 -25 -5q-28 0 -43 3.5t-15 9.5q0 28 54 103q-78 19 -115 74
t-37 129q0 132 59 239.5t159 169t216 61.5q46 0 84 -21t60 -60.5t22 -92.5q0 -30 -22.5 -51t-60.5 -21q-30 0 -40.5 16z" />
    <glyph glyph-name="Ccircumflex" unicode="&#x108;" horiz-adv-x="624" 
d="M553.5 889.5q15.5 -9.5 38.5 -39.5l51 -66q10 -13 10 -25q0 -16 -15.5 -27.5t-36.5 -11.5q-20 0 -38 21l-55 66q-60 -52 -88.5 -73t-41.5 -21q-20 0 -35.5 9t-15.5 24q0 11 3.5 20t17.5 20l22 18q75 62 103 83q15 12 45 12q20 0 35.5 -9.5zM509.5 83.5
q-44.5 -45.5 -112 -75t-147.5 -29.5q-122 0 -179 59.5t-57 152.5q0 132 59 239.5t159 169t216 61.5q46 0 84 -21t60 -60.5t22 -92.5q0 -30 -22.5 -51t-60.5 -21q-30 0 -40.5 16t-10.5 41l1 32q0 18 -20 35t-37 17q-56 0 -123 -50.5t-113 -136t-46 -185.5q0 -46 36 -75
t91 -29q18 0 47 12t53.5 30t32.5 35q12 25 34 56t44 31q51 0 69.5 -22t19.5 -48q-15 -45 -59.5 -90.5z" />
    <glyph glyph-name="Cdotaccent" unicode="&#x10a;" horiz-adv-x="624" 
d="M419 730.5q-21 18.5 -21 41.5q0 34 28 59t62 25q25 0 45 -21.5t20 -46.5q0 -32 -27 -54t-63 -22q-23 0 -44 18.5zM509.5 83.5q-44.5 -45.5 -112 -75t-147.5 -29.5q-122 0 -179 59.5t-57 152.5q0 132 59 239.5t159 169t216 61.5q46 0 84 -21t60 -60.5t22 -92.5
q0 -30 -22.5 -51t-60.5 -21q-30 0 -40.5 16t-10.5 41l1 32q0 18 -20 35t-37 17q-56 0 -123 -50.5t-113 -136t-46 -185.5q0 -46 36 -75t91 -29q18 0 47 12t53.5 30t32.5 35q12 25 34 56t44 31q51 0 69.5 -22t19.5 -48q-15 -45 -59.5 -90.5z" />
    <glyph glyph-name="D" unicode="D" horiz-adv-x="598" 
d="M294 678q15 -8 15 -21q19 3 33.5 4t32.5 1q72 0 121.5 -35t74 -92t24.5 -123q0 -17 -1 -25q-9 -120 -60 -211.5t-134.5 -141.5t-187.5 -50q-29 0 -71 7q-16 3 -37.5 21.5t-36.5 42.5t-15 43q0 11 3 21l105 405q-57 -17 -96 -44q-12 12 -18 30t-6 37q0 22 18 39
q47 30 130 51q19 49 62 49q29 0 44 -8zM232 89q70 0 120 38.5t78.5 97.5t37.5 122q4 25 4 56q0 70 -31 110.5t-96 40.5q-28 0 -51 -4q-18 -78 -76 -305q-31 -122 -38 -150q24 -6 52 -6z" />
    <glyph glyph-name="uni01F1" unicode="&#x1f1;" horiz-adv-x="1192" 
d="M496.5 627q49.5 -35 74 -92t24.5 -123q0 -17 -1 -25q-9 -120 -60 -211.5t-134.5 -141.5t-187.5 -50q-29 0 -71 7q-16 3 -37.5 21.5t-36.5 42.5t-15 43q0 11 3 21l105 405q-57 -17 -96 -44q-12 12 -18 30t-6 37q0 22 18 39q47 30 130 51q19 49 62 49q29 0 44 -8t15 -21
q19 3 33.5 4t32.5 1q72 0 121.5 -35zM1072 95.5q6 -13.5 6 -31.5q0 -28 -40 -47q-75 -10 -210 -19.5t-193 -10.5q-36 19 -36 48q0 12 12 27l209 258l192 237q-214 -6 -263 -38q-14 11 -22.5 31.5t-8.5 37.5q0 28 38 46q75 10 210 19.5t193 10.5q36 -19 36 -48q0 -12 -12 -27
l-396 -490q176 11 260 24q19 -14 25 -27.5zM472 403q0 70 -31 110.5t-96 40.5q-28 0 -51 -4q-18 -78 -76 -305q-31 -122 -38 -150q24 -6 52 -6q70 0 120 38.5t78.5 97.5t37.5 122q4 25 4 56zM743 44z" />
    <glyph glyph-name="uni01C4" unicode="&#x1c4;" horiz-adv-x="1154" 
d="M811 822q-10 13 -10 25q0 16 15.5 27.5t36.5 11.5q20 0 38 -21l55 -66q60 52 88.5 73t41.5 21q20 0 35.5 -9t15.5 -24q0 -11 -3.5 -20t-17.5 -20l-22 -18q-75 -62 -103 -83q-15 -12 -45 -12q-20 0 -35.5 9.5t-38.5 39.5zM594 387q-9 -120 -60 -211.5t-134.5 -141.5
t-187.5 -50q-29 0 -71 7q-16 3 -37.5 21.5t-36.5 42.5t-15 43q0 11 3 21l105 405q-57 -17 -96 -44q-12 12 -18 30t-6 37q0 22 18 39q47 30 130 51q19 49 62 49q29 0 44 -8t15 -21q19 3 33.5 4t32.5 1q72 0 121.5 -35t74 -92t24.5 -123q0 -17 -1 -25zM1025 95.5
q6 -13.5 6 -31.5q0 -28 -40 -47q-75 -10 -210 -19.5t-193 -10.5q-36 19 -36 48q0 12 12 27l209 258l192 237q-214 -6 -263 -38q-14 11 -22.5 31.5t-8.5 37.5q0 28 38 46q75 10 210 19.5t193 10.5q36 -19 36 -48q0 -12 -12 -27l-396 -490q176 11 260 24q19 -14 25 -27.5z
M472 403q0 70 -31 110.5t-96 40.5q-28 0 -51 -4q-18 -78 -76 -305q-31 -122 -38 -150q24 -6 52 -6q70 0 120 38.5t78.5 97.5t37.5 122q4 25 4 56zM696 44z" />
    <glyph glyph-name="Eth" unicode="&#xd0;" horiz-adv-x="598" 
d="M496.5 627q49.5 -35 74 -92t24.5 -123q0 -17 -1 -25q-9 -120 -60 -211.5t-134.5 -141.5t-187.5 -50q-29 0 -71 7q-16 3 -37.5 21.5t-36.5 42.5t-15 43q0 11 3 21l27 106l-18 -2h-6q-23 0 -37.5 13t-16.5 31l-1 12q0 26 17 40.5t59 18.5l34 3l47 183q-57 -17 -96 -44
q-12 12 -18 30t-6 37q0 22 18 39q47 30 130 51q19 49 62 49q29 0 44 -8t15 -21q19 3 33.5 4t32.5 1q72 0 121.5 -35zM472 403q0 70 -31 110.5t-96 40.5q-28 0 -51 -4l-31 -128l-16 -66q39 6 53 7h6q24 0 39 -14.5t17 -35.5v-5q0 -21 -15.5 -36t-42.5 -21l-87 -12
q-21 -80 -37 -144q24 -6 52 -6q70 0 120 38.5t78.5 97.5t37.5 122q4 25 4 56z" />
    <glyph glyph-name="Dcaron" unicode="&#x10e;" horiz-adv-x="598" 
d="M354.5 722.5q-15.5 9.5 -38.5 39.5l-51 66q-10 13 -10 25q0 16 15.5 27.5t36.5 11.5q20 0 38 -21l55 -66q60 52 88.5 73t41.5 21q20 0 35.5 -9t15.5 -24q0 -11 -3.5 -20t-17.5 -20l-22 -18q-75 -62 -103 -83q-15 -12 -45 -12q-20 0 -35.5 9.5zM294 678q15 -8 15 -21
q19 3 33.5 4t32.5 1q72 0 121.5 -35t74 -92t24.5 -123q0 -17 -1 -25q-9 -120 -60 -211.5t-134.5 -141.5t-187.5 -50q-29 0 -71 7q-16 3 -37.5 21.5t-36.5 42.5t-15 43q0 11 3 21l105 405q-57 -17 -96 -44q-12 12 -18 30t-6 37q0 22 18 39q47 30 130 51q19 49 62 49
q29 0 44 -8zM232 89q70 0 120 38.5t78.5 97.5t37.5 122q4 25 4 56q0 70 -31 110.5t-96 40.5q-28 0 -51 -4q-18 -78 -76 -305q-31 -122 -38 -150q24 -6 52 -6z" />
    <glyph glyph-name="Dcroat" unicode="&#x110;" horiz-adv-x="598" 
d="M496.5 627q49.5 -35 74 -92t24.5 -123q0 -17 -1 -25q-9 -120 -60 -211.5t-134.5 -141.5t-187.5 -50q-29 0 -71 7q-16 3 -37.5 21.5t-36.5 42.5t-15 43q0 11 3 21l27 106l-18 -2h-6q-23 0 -37.5 13t-16.5 31l-1 12q0 26 17 40.5t59 18.5l34 3l47 183q-57 -17 -96 -44
q-12 12 -18 30t-6 37q0 22 18 39q47 30 130 51q19 49 62 49q29 0 44 -8t15 -21q19 3 33.5 4t32.5 1q72 0 121.5 -35zM472 403q0 70 -31 110.5t-96 40.5q-28 0 -51 -4l-31 -128l-16 -66q39 6 53 7h6q24 0 39 -14.5t17 -35.5v-5q0 -21 -15.5 -36t-42.5 -21l-87 -12
q-21 -80 -37 -144q24 -6 52 -6q70 0 120 38.5t78.5 97.5t37.5 122q4 25 4 56z" />
    <glyph glyph-name="uni1E0C" unicode="&#x1e0c;" horiz-adv-x="598" 
d="M294 678q15 -8 15 -21q19 3 33.5 4t32.5 1q72 0 121.5 -35t74 -92t24.5 -123q0 -17 -1 -25q-9 -120 -60 -211.5t-134.5 -141.5t-187.5 -50q-29 0 -71 7q-16 3 -37.5 21.5t-36.5 42.5t-15 43q0 11 3 21l105 405q-57 -17 -96 -44q-12 12 -18 30t-6 37q0 22 18 39
q47 30 130 51q19 49 62 49q29 0 44 -8zM232 89q70 0 120 38.5t78.5 97.5t37.5 122q4 25 4 56q0 70 -31 110.5t-96 40.5q-28 0 -51 -4q-18 -78 -76 -305q-31 -122 -38 -150q24 -6 52 -6zM140 -196.5q-21 18.5 -21 41.5q0 34 28 59t62 25q25 0 45 -21.5t20 -46.5
q0 -32 -27 -54t-63 -22q-23 0 -44 18.5z" />
    <glyph glyph-name="uni1E0E" unicode="&#x1e0e;" horiz-adv-x="598" 
d="M294 678q15 -8 15 -21q19 3 33.5 4t32.5 1q72 0 121.5 -35t74 -92t24.5 -123q0 -17 -1 -25q-9 -120 -60 -211.5t-134.5 -141.5t-187.5 -50q-29 0 -71 7q-16 3 -37.5 21.5t-36.5 42.5t-15 43q0 11 3 21l105 405q-57 -17 -96 -44q-12 12 -18 30t-6 37q0 22 18 39
q47 30 130 51q19 49 62 49q29 0 44 -8zM232 89q70 0 120 38.5t78.5 97.5t37.5 122q4 25 4 56q0 70 -31 110.5t-96 40.5q-28 0 -51 -4q-18 -78 -76 -305q-31 -122 -38 -150q24 -6 52 -6zM394 -145q-19 -13 -49 -15l-209 -11q-28 -4 -43 -4q-44 3 -47 40v8q1 21 13.5 31t38 14
t79.5 6l189 8q25 -2 36 -8t12 -24v-7q-1 -25 -20 -38z" />
    <glyph glyph-name="uni01F2" unicode="&#x1f2;" horiz-adv-x="1073" 
d="M294 678q15 -8 15 -21q19 3 33.5 4t32.5 1q72 0 121.5 -35t74 -92t24.5 -123q0 -17 -1 -25q-9 -120 -60 -211.5t-134.5 -141.5t-187.5 -50q-29 0 -71 7q-16 3 -37.5 21.5t-36.5 42.5t-15 43q0 11 3 21l105 405q-57 -17 -96 -44q-12 12 -18 30t-6 37q0 22 18 39
q47 30 130 51q19 49 62 49q29 0 44 -8zM232 89q70 0 120 38.5t78.5 97.5t37.5 122q4 25 4 56q0 70 -31 110.5t-96 40.5q-28 0 -51 -4q-18 -78 -76 -305q-31 -122 -38 -150q24 -6 52 -6zM665 -28q-37 -4 -38 -4q-18 0 -32.5 5t-16.5 13q-2 5 -8 18t-6 22t5 14q5 6 21.5 9
t22.5 3q48 50 127 137q110 120 167 176l-199 -19q-31 0 -31 31q0 25 18 50q5 7 79 16t161.5 16.5t111.5 7.5q38 0 38 -44q0 -13 -9 -24.5t-22 -17.5l-22 -19q-55 -56 -135 -143l-134 -142q158 20 202 20q38 0 38 -44q0 -17 -14.5 -30.5t-31.5 -16.5q-256 -29 -292 -34z" />
    <glyph glyph-name="uni01C5" unicode="&#x1c5;" horiz-adv-x="1073" 
d="M882.5 553.5q-15.5 9.5 -38.5 39.5l-51 66q-10 13 -10 25q0 16 15.5 27.5t36.5 11.5q20 0 38 -21l55 -66q60 52 88.5 73t41.5 21q20 0 35.5 -9t15.5 -24q0 -11 -3.5 -20t-17.5 -20l-22 -18q-75 -62 -103 -83q-15 -12 -45 -12q-20 0 -35.5 9.5zM294 678q15 -8 15 -21
q19 3 33.5 4t32.5 1q72 0 121.5 -35t74 -92t24.5 -123q0 -17 -1 -25q-9 -120 -60 -211.5t-134.5 -141.5t-187.5 -50q-29 0 -71 7q-16 3 -37.5 21.5t-36.5 42.5t-15 43q0 11 3 21l105 405q-57 -17 -96 -44q-12 12 -18 30t-6 37q0 22 18 39q47 30 130 51q19 49 62 49
q29 0 44 -8zM232 89q70 0 120 38.5t78.5 97.5t37.5 122q4 25 4 56q0 70 -31 110.5t-96 40.5q-28 0 -51 -4q-18 -78 -76 -305q-31 -122 -38 -150q24 -6 52 -6zM663 -28q-37 -4 -38 -4q-18 0 -32.5 5t-16.5 13q-2 5 -8 18t-6 22t5 14q5 6 21.5 9t22.5 3q48 50 127 137
q110 120 167 176l-199 -19q-31 0 -31 31q0 25 18 50q5 7 79 16t161.5 16.5t111.5 7.5q38 0 38 -44q0 -13 -9 -24.5t-22 -17.5l-22 -19q-55 -56 -135 -143l-134 -142q158 20 202 20q38 0 38 -44q0 -17 -14.5 -30.5t-31.5 -16.5q-256 -29 -292 -34z" />
    <glyph glyph-name="E" unicode="E" horiz-adv-x="555" 
d="M605 628q0 -18 -19.5 -33.5t-43.5 -21.5l-44 -3q-30 -2 -81 -5.5t-120 -9.5l-45 -179q63 10 104.5 16t92.5 10q39 -17 39 -46q0 -18 -18 -35t-41 -24l-57 -6q-91 -10 -146 -20q-12 -55 -34 -139l-8 -31q133 25 257 35q39 -17 39 -46q0 -18 -18 -35t-41 -24
q-190 -22 -268 -37q-9 -6 -39 -6q-28 0 -49.5 26t-21.5 54q0 11 3 21l114 451h-3q-1 11 -14 27q-1 2 -8 12.5t-7 20.5q2 29 38 46q75 10 210 19.5t193 10.5q36 -19 36 -48z" />
    <glyph glyph-name="Eacute" unicode="&#xc9;" horiz-adv-x="555" 
d="M264 720q-9 7 -9 24q0 8 3 12q14 21 53.5 59t78 67.5t49.5 29.5q21 0 48 -19t27 -35q0 -13 -14 -26t-57 -43q-61 -43 -93 -59.5t-58 -16.5q-19 0 -28 7zM605 628q0 -18 -19.5 -33.5t-43.5 -21.5l-44 -3q-30 -2 -81 -5.5t-120 -9.5l-45 -179q63 10 104.5 16t92.5 10
q39 -17 39 -46q0 -18 -18 -35t-41 -24l-57 -6q-91 -10 -146 -20q-12 -55 -34 -139l-8 -31q133 25 257 35q39 -17 39 -46q0 -18 -18 -35t-41 -24q-190 -22 -268 -37q-9 -6 -39 -6q-28 0 -49.5 26t-21.5 54q0 11 3 21l114 451h-3q-1 11 -14 27q-1 2 -8 12.5t-7 20.5
q2 29 38 46q75 10 210 19.5t193 10.5q36 -19 36 -48z" />
    <glyph glyph-name="Ebreve" unicode="&#x114;" horiz-adv-x="555" 
d="M305 733.5q-37 24.5 -37 69.5q0 55 53 55q33 0 34 -32q1 -20 11 -28t45 -8q32 0 50 6.5t28.5 19t23.5 37.5q7 6 16.5 10t17.5 4q35 0 44 -14q-10 -70 -63 -106t-125 -38q-61 0 -98 24.5zM605 628q0 -18 -19.5 -33.5t-43.5 -21.5l-44 -3q-30 -2 -81 -5.5t-120 -9.5
l-45 -179q63 10 104.5 16t92.5 10q39 -17 39 -46q0 -18 -18 -35t-41 -24l-57 -6q-91 -10 -146 -20q-12 -55 -34 -139l-8 -31q133 25 257 35q39 -17 39 -46q0 -18 -18 -35t-41 -24q-190 -22 -268 -37q-9 -6 -39 -6q-28 0 -49.5 26t-21.5 54q0 11 3 21l114 451h-3
q-1 11 -14 27q-1 2 -8 12.5t-7 20.5q2 29 38 46q75 10 210 19.5t193 10.5q36 -19 36 -48z" />
    <glyph glyph-name="Ecaron" unicode="&#x11a;" horiz-adv-x="555" 
d="M277 824q-10 13 -10 25q0 16 15.5 27.5t36.5 11.5q20 0 38 -21l55 -66q60 52 88.5 73t41.5 21q20 0 35.5 -9t15.5 -24q0 -11 -3.5 -20t-17.5 -20l-22 -18q-75 -62 -103 -83q-15 -12 -45 -12q-20 0 -35.5 9.5t-38.5 39.5zM605 628q0 -18 -19.5 -33.5t-43.5 -21.5l-44 -3
q-30 -2 -81 -5.5t-120 -9.5l-45 -179q63 10 104.5 16t92.5 10q39 -17 39 -46q0 -18 -18 -35t-41 -24l-57 -6q-91 -10 -146 -20q-12 -55 -34 -139l-8 -31q133 25 257 35q39 -17 39 -46q0 -18 -18 -35t-41 -24q-190 -22 -268 -37q-9 -6 -39 -6q-28 0 -49.5 26t-21.5 54
q0 11 3 21l114 451h-3q-1 11 -14 27q-1 2 -8 12.5t-7 20.5q2 29 38 46q75 10 210 19.5t193 10.5q36 -19 36 -48z" />
    <glyph glyph-name="Ecircumflex" unicode="&#xca;" horiz-adv-x="555" 
d="M236.5 712q-15.5 9 -15.5 24q0 11 3.5 20t17.5 20l22 18q75 62 103 83q15 12 45 12q20 0 35.5 -9.5t38.5 -39.5l51 -66q10 -13 10 -25q0 -16 -15.5 -27.5t-36.5 -11.5q-20 0 -38 21l-55 66q-60 -52 -88.5 -73t-41.5 -21q-20 0 -35.5 9zM605 628q0 -18 -19.5 -33.5
t-43.5 -21.5l-44 -3q-30 -2 -81 -5.5t-120 -9.5l-45 -179q63 10 104.5 16t92.5 10q39 -17 39 -46q0 -18 -18 -35t-41 -24l-57 -6q-91 -10 -146 -20q-12 -55 -34 -139l-8 -31q133 25 257 35q39 -17 39 -46q0 -18 -18 -35t-41 -24q-190 -22 -268 -37q-9 -6 -39 -6
q-28 0 -49.5 26t-21.5 54q0 11 3 21l114 451h-3q-1 11 -14 27q-1 2 -8 12.5t-7 20.5q2 29 38 46q75 10 210 19.5t193 10.5q36 -19 36 -48z" />
    <glyph glyph-name="uni1EBE" unicode="&#x1ebe;" horiz-adv-x="555" 
d="M675.5 958.5q29.5 -13.5 29.5 -23.5q0 -9 -10 -18.5t-40 -29.5l-34 -24q-24 -18 -36.5 -25t-25.5 -7q-14 0 -20 5t-6 17q0 4 2 8q23 35 53.5 73t41.5 38q16 0 45.5 -13.5zM254.5 711q-15.5 9 -15.5 24q0 11 3.5 20t17.5 20l22 18q75 62 103 83q15 12 45 12
q20 0 35.5 -9.5t38.5 -39.5l51 -66q10 -13 10 -25q0 -16 -15.5 -27.5t-36.5 -11.5q-20 0 -38 21l-55 66q-60 -52 -88.5 -73t-41.5 -21q-20 0 -35.5 9zM605 628q0 -18 -19.5 -33.5t-43.5 -21.5l-44 -3q-30 -2 -81 -5.5t-120 -9.5l-45 -179q63 10 104.5 16t92.5 10
q39 -17 39 -46q0 -18 -18 -35t-41 -24l-57 -6q-91 -10 -146 -20q-12 -55 -34 -139l-8 -31q133 25 257 35q39 -17 39 -46q0 -18 -18 -35t-41 -24q-190 -22 -268 -37q-9 -6 -39 -6q-28 0 -49.5 26t-21.5 54q0 11 3 21l114 451h-3q-1 11 -14 27q-1 2 -8 12.5t-7 20.5
q2 29 38 46q75 10 210 19.5t193 10.5q36 -19 36 -48z" />
    <glyph glyph-name="uni1EC6" unicode="&#x1ec6;" horiz-adv-x="555" 
d="M254.5 711q-15.5 9 -15.5 24q0 11 3.5 20t17.5 20l22 18q75 62 103 83q15 12 45 12q20 0 35.5 -9.5t38.5 -39.5l51 -66q10 -13 10 -25q0 -16 -15.5 -27.5t-36.5 -11.5q-20 0 -38 21l-55 66q-60 -52 -88.5 -73t-41.5 -21q-20 0 -35.5 9zM605 628q0 -18 -19.5 -33.5
t-43.5 -21.5l-44 -3q-30 -2 -81 -5.5t-120 -9.5l-45 -179q63 10 104.5 16t92.5 10q39 -17 39 -46q0 -18 -18 -35t-41 -24l-57 -6q-91 -10 -146 -20q-12 -55 -34 -139l-8 -31q133 25 257 35q39 -17 39 -46q0 -18 -18 -35t-41 -24q-190 -22 -268 -37q-9 -6 -39 -6
q-28 0 -49.5 26t-21.5 54q0 11 3 21l114 451h-3q-1 11 -14 27q-1 2 -8 12.5t-7 20.5q2 29 38 46q75 10 210 19.5t193 10.5q36 -19 36 -48zM329 -92.5q20 -21.5 20 -46.5q0 -32 -27 -54t-63 -22q-23 0 -44 18.5t-21 41.5q0 34 28 59t62 25q25 0 45 -21.5z" />
    <glyph glyph-name="uni1EC0" unicode="&#x1ec0;" horiz-adv-x="555" 
d="M120 916.5q-10 9.5 -10 18.5q0 10 29.5 23.5t45.5 13.5q11 0 41.5 -38t53.5 -73q2 -4 2 -8q0 -12 -6 -17t-20 -5q-13 0 -25.5 7t-36.5 25l-34 24q-30 20 -40 29.5zM242.5 755q3.5 9 17.5 20l22 18q75 62 103 83q15 12 45 12q20 0 35.5 -9.5t38.5 -39.5l51 -66
q10 -13 10 -25q0 -16 -15.5 -27.5t-36.5 -11.5q-20 0 -38 21l-55 66q-60 -52 -88.5 -73t-41.5 -21q-20 0 -35.5 9t-15.5 24q0 11 3.5 20zM605 628q0 -18 -19.5 -33.5t-43.5 -21.5l-44 -3q-30 -2 -81 -5.5t-120 -9.5l-45 -179q63 10 104.5 16t92.5 10q39 -17 39 -46
q0 -18 -18 -35t-41 -24l-57 -6q-91 -10 -146 -20q-12 -55 -34 -139l-8 -31q133 25 257 35q39 -17 39 -46q0 -18 -18 -35t-41 -24q-190 -22 -268 -37q-9 -6 -39 -6q-28 0 -49.5 26t-21.5 54q0 11 3 21l114 451h-3q-1 11 -14 27q-1 2 -8 12.5t-7 20.5q2 29 38 46
q75 10 210 19.5t193 10.5q36 -19 36 -48z" />
    <glyph glyph-name="uni1EC2" unicode="&#x1ec2;" horiz-adv-x="555" 
d="M690 1016.5q26 -15.5 26 -44.5q0 -52 -70 -80q-14 -5 -19.5 -12.5t-7.5 -16t-4 -13.5q-11 -22 -36 -22q-13 0 -20.5 4.5t-7.5 11.5q0 4 13 52q3 13 14 19.5t30 12.5q20 7 29.5 13.5t9.5 21.5q0 6 -6.5 11.5t-22.5 5.5q-21 0 -35 -8q-12 -6 -21 -6q-8 0 -14 8t-6 17
q0 23 26 32t61 9t61 -15.5zM254.5 711q-15.5 9 -15.5 24q0 11 3.5 20t17.5 20l22 18q75 62 103 83q15 12 45 12q20 0 35.5 -9.5t38.5 -39.5l51 -66q10 -13 10 -25q0 -16 -15.5 -27.5t-36.5 -11.5q-20 0 -38 21l-55 66q-60 -52 -88.5 -73t-41.5 -21q-20 0 -35.5 9zM605 628
q0 -18 -19.5 -33.5t-43.5 -21.5l-44 -3q-30 -2 -81 -5.5t-120 -9.5l-45 -179q63 10 104.5 16t92.5 10q39 -17 39 -46q0 -18 -18 -35t-41 -24l-57 -6q-91 -10 -146 -20q-12 -55 -34 -139l-8 -31q133 25 257 35q39 -17 39 -46q0 -18 -18 -35t-41 -24q-190 -22 -268 -37
q-9 -6 -39 -6q-28 0 -49.5 26t-21.5 54q0 11 3 21l114 451h-3q-1 11 -14 27q-1 2 -8 12.5t-7 20.5q2 29 38 46q75 10 210 19.5t193 10.5q36 -19 36 -48z" />
    <glyph glyph-name="uni1EC4" unicode="&#x1ec4;" horiz-adv-x="555" 
d="M308 930q-4 10 -4 32q0 16 18 33t44 28t48 11q39 0 79 -28q18 -12 30 -17t27 -5q11 0 20 5.5t17.5 13t13.5 11.5q5 3 8 3q4 0 7.5 -4t4.5 -4q2 0 2 -7q0 -23 -17 -43t-39.5 -32t-36.5 -12q-20 0 -34.5 5.5t-40.5 20.5q-17 12 -29.5 16.5t-26.5 4.5q-28 0 -77 -47
q-10 5 -14 15zM254.5 711q-15.5 9 -15.5 24q0 11 3.5 20t17.5 20l22 18q75 62 103 83q15 12 45 12q20 0 35.5 -9.5t38.5 -39.5l51 -66q10 -13 10 -25q0 -16 -15.5 -27.5t-36.5 -11.5q-20 0 -38 21l-55 66q-60 -52 -88.5 -73t-41.5 -21q-20 0 -35.5 9zM605 628
q0 -18 -19.5 -33.5t-43.5 -21.5l-44 -3q-30 -2 -81 -5.5t-120 -9.5l-45 -179q63 10 104.5 16t92.5 10q39 -17 39 -46q0 -18 -18 -35t-41 -24l-57 -6q-91 -10 -146 -20q-12 -55 -34 -139l-8 -31q133 25 257 35q39 -17 39 -46q0 -18 -18 -35t-41 -24q-190 -22 -268 -37
q-9 -6 -39 -6q-28 0 -49.5 26t-21.5 54q0 11 3 21l114 451h-3q-1 11 -14 27q-1 2 -8 12.5t-7 20.5q2 29 38 46q75 10 210 19.5t193 10.5q36 -19 36 -48z" />
    <glyph glyph-name="uni0204" unicode="&#x204;" horiz-adv-x="555" 
d="M181 820.5q-6 5.5 -6 18.5q0 23 12.5 45t33.5 22q53 0 111 -132q6 -13 6 -26q0 -12 -5 -26.5t-15 -14.5l-4 1q-10 3 -20.5 13.5t-25.5 29.5q-24 27 -38 40.5t-32 19.5q-11 4 -17 9.5zM356 820.5q-6 5.5 -6 18.5q0 23 12.5 45t33.5 22q53 0 111 -132q6 -13 6 -26
q0 -12 -5 -26.5t-15 -14.5l-4 1q-10 3 -20.5 13.5t-25.5 29.5q-24 27 -38 40.5t-32 19.5q-11 4 -17 9.5zM605 628q0 -18 -19.5 -33.5t-43.5 -21.5l-44 -3q-30 -2 -81 -5.5t-120 -9.5l-45 -179q63 10 104.5 16t92.5 10q39 -17 39 -46q0 -18 -18 -35t-41 -24l-57 -6
q-91 -10 -146 -20q-12 -55 -34 -139l-8 -31q133 25 257 35q39 -17 39 -46q0 -18 -18 -35t-41 -24q-190 -22 -268 -37q-9 -6 -39 -6q-28 0 -49.5 26t-21.5 54q0 11 3 21l114 451h-3q-1 11 -14 27q-1 2 -8 12.5t-7 20.5q2 29 38 46q75 10 210 19.5t193 10.5q36 -19 36 -48z
" />
    <glyph glyph-name="Edieresis" unicode="&#xcb;" horiz-adv-x="555" 
d="M433 723q-23 20 -23 42q0 35 26 57.5t60 22.5q26 0 49 -20t23 -44q0 -32 -26.5 -55t-62.5 -23q-23 0 -46 20zM207 717.5q-21 18.5 -21 41.5q0 34 28 59t62 25q25 0 45 -21.5t20 -46.5q0 -32 -27 -54t-63 -22q-23 0 -44 18.5zM605 628q0 -18 -19.5 -33.5t-43.5 -21.5
l-44 -3q-30 -2 -81 -5.5t-120 -9.5l-45 -179q63 10 104.5 16t92.5 10q39 -17 39 -46q0 -18 -18 -35t-41 -24l-57 -6q-91 -10 -146 -20q-12 -55 -34 -139l-8 -31q133 25 257 35q39 -17 39 -46q0 -18 -18 -35t-41 -24q-190 -22 -268 -37q-9 -6 -39 -6q-28 0 -49.5 26t-21.5 54
q0 11 3 21l114 451h-3q-1 11 -14 27q-1 2 -8 12.5t-7 20.5q2 29 38 46q75 10 210 19.5t193 10.5q36 -19 36 -48z" />
    <glyph glyph-name="Edotaccent" unicode="&#x116;" horiz-adv-x="555" 
d="M351 731.5q-21 18.5 -21 41.5q0 34 28 59t62 25q25 0 45 -21.5t20 -46.5q0 -32 -27 -54t-63 -22q-23 0 -44 18.5zM605 628q0 -18 -19.5 -33.5t-43.5 -21.5l-44 -3q-30 -2 -81 -5.5t-120 -9.5l-45 -179q63 10 104.5 16t92.5 10q39 -17 39 -46q0 -18 -18 -35t-41 -24
l-57 -6q-91 -10 -146 -20q-12 -55 -34 -139l-8 -31q133 25 257 35q39 -17 39 -46q0 -18 -18 -35t-41 -24q-190 -22 -268 -37q-9 -6 -39 -6q-28 0 -49.5 26t-21.5 54q0 11 3 21l114 451h-3q-1 11 -14 27q-1 2 -8 12.5t-7 20.5q2 29 38 46q75 10 210 19.5t193 10.5
q36 -19 36 -48z" />
    <glyph glyph-name="uni1EB8" unicode="&#x1eb8;" horiz-adv-x="555" 
d="M605 628q0 -18 -19.5 -33.5t-43.5 -21.5l-44 -3q-30 -2 -81 -5.5t-120 -9.5l-45 -179q63 10 104.5 16t92.5 10q39 -17 39 -46q0 -18 -18 -35t-41 -24l-57 -6q-91 -10 -146 -20q-12 -55 -34 -139l-8 -31q133 25 257 35q39 -17 39 -46q0 -18 -18 -35t-41 -24
q-190 -22 -268 -37q-9 -6 -39 -6q-28 0 -49.5 26t-21.5 54q0 11 3 21l114 451h-3q-1 11 -14 27q-1 2 -8 12.5t-7 20.5q2 29 38 46q75 10 210 19.5t193 10.5q36 -19 36 -48zM304 -92.5q20 -21.5 20 -46.5q0 -32 -27 -54t-63 -22q-23 0 -44 18.5t-21 41.5q0 34 28 59t62 25
q25 0 45 -21.5z" />
    <glyph glyph-name="Egrave" unicode="&#xc8;" horiz-adv-x="555" 
d="M235 832q-14 13 -14 26q0 16 27 35t48 19q11 0 49.5 -29.5t78 -67.5t53.5 -59q3 -4 3 -12q0 -17 -9 -24t-28 -7q-26 0 -58 16.5t-93 59.5q-43 30 -57 43zM605 628q0 -18 -19.5 -33.5t-43.5 -21.5l-44 -3q-30 -2 -81 -5.5t-120 -9.5l-45 -179q63 10 104.5 16t92.5 10
q39 -17 39 -46q0 -18 -18 -35t-41 -24l-57 -6q-91 -10 -146 -20q-12 -55 -34 -139l-8 -31q133 25 257 35q39 -17 39 -46q0 -18 -18 -35t-41 -24q-190 -22 -268 -37q-9 -6 -39 -6q-28 0 -49.5 26t-21.5 54q0 11 3 21l114 451h-3q-1 11 -14 27q-1 2 -8 12.5t-7 20.5
q2 29 38 46q75 10 210 19.5t193 10.5q36 -19 36 -48z" />
    <glyph glyph-name="uni1EBA" unicode="&#x1eba;" horiz-adv-x="555" 
d="M338.5 895q-7.5 10 -7.5 21q0 29 32.5 40t76.5 11q43 0 76 -19t33 -56q0 -38 -24 -60.5t-62 -37.5q-18 -7 -25 -17t-10 -20.5t-5 -16.5q-15 -27 -46 -27q-16 0 -25 5t-9 14q0 7 16 66q4 16 17 24t38 16t37 16.5t12 26.5q0 8 -8.5 15t-28.5 7q-21 0 -31.5 -4.5t-11.5 -5.5
t-8.5 -4.5t-18.5 -3.5q-10 0 -17.5 10zM605 628q0 -18 -19.5 -33.5t-43.5 -21.5l-44 -3q-30 -2 -81 -5.5t-120 -9.5l-45 -179q63 10 104.5 16t92.5 10q39 -17 39 -46q0 -18 -18 -35t-41 -24l-57 -6q-91 -10 -146 -20q-12 -55 -34 -139l-8 -31q133 25 257 35q39 -17 39 -46
q0 -18 -18 -35t-41 -24q-190 -22 -268 -37q-9 -6 -39 -6q-28 0 -49.5 26t-21.5 54q0 11 3 21l114 451h-3q-1 11 -14 27q-1 2 -8 12.5t-7 20.5q2 29 38 46q75 10 210 19.5t193 10.5q36 -19 36 -48z" />
    <glyph glyph-name="uni0206" unicode="&#x206;" horiz-adv-x="555" 
d="M263 705q-13 5 -13 19q0 123 197 132q59 0 100.5 -22t41.5 -65q0 -56 -49 -56q-41 0 -43 28q-2 34 -56 34q-87 0 -104 -56q-2 -8 -14.5 -13.5t-21.5 -5.5q-25 0 -38 5zM605 628q0 -18 -19.5 -33.5t-43.5 -21.5l-44 -3q-30 -2 -81 -5.5t-120 -9.5l-45 -179q63 10 104.5 16
t92.5 10q39 -17 39 -46q0 -18 -18 -35t-41 -24l-57 -6q-91 -10 -146 -20q-12 -55 -34 -139l-8 -31q133 25 257 35q39 -17 39 -46q0 -18 -18 -35t-41 -24q-190 -22 -268 -37q-9 -6 -39 -6q-28 0 -49.5 26t-21.5 54q0 11 3 21l114 451h-3q-1 11 -14 27q-1 2 -8 12.5t-7 20.5
q2 29 38 46q75 10 210 19.5t193 10.5q36 -19 36 -48z" />
    <glyph glyph-name="Emacron" unicode="&#x112;" horiz-adv-x="555" 
d="M623 803v-7q-1 -25 -20 -38t-49 -15l-209 -11q-28 -4 -43 -4q-44 3 -47 40v8q2 22 14.5 34t39.5 17.5t77 7.5l189 8q47 -3 48 -40zM605 628q0 -18 -19.5 -33.5t-43.5 -21.5l-44 -3q-30 -2 -81 -5.5t-120 -9.5l-45 -179q63 10 104.5 16t92.5 10q39 -17 39 -46
q0 -18 -18 -35t-41 -24l-57 -6q-91 -10 -146 -20q-12 -55 -34 -139l-8 -31q133 25 257 35q39 -17 39 -46q0 -18 -18 -35t-41 -24q-190 -22 -268 -37q-9 -6 -39 -6q-28 0 -49.5 26t-21.5 54q0 11 3 21l114 451h-3q-1 11 -14 27q-1 2 -8 12.5t-7 20.5q2 29 38 46
q75 10 210 19.5t193 10.5q36 -19 36 -48z" />
    <glyph glyph-name="Eogonek" unicode="&#x118;" horiz-adv-x="555" 
d="M605 628q0 -18 -19.5 -33.5t-43.5 -21.5l-44 -3q-30 -2 -81 -5.5t-120 -9.5l-45 -179q63 10 104.5 16t92.5 10q39 -17 39 -46q0 -18 -18 -35t-41 -24l-57 -6q-91 -10 -146 -20q-12 -55 -34 -139l-8 -31q133 25 257 35q39 -17 39 -46q0 -15 -16 -33q-37 -34 -54 -60.5
t-17 -55.5q0 -45 45 -45q22 0 48 6q14 -10 14 -20q0 -25 -33 -35t-67 -10q-48 0 -81.5 25t-33.5 79q0 19 13.5 39.5t37.5 40.5q-104 -12 -183 -27q-9 -6 -39 -6q-28 0 -49.5 26t-21.5 54q0 11 3 21l114 451h-3q-1 11 -14 27q-1 2 -8 12.5t-7 20.5q2 29 38 46q75 10 210 19.5
t193 10.5q36 -19 36 -48z" />
    <glyph glyph-name="uni1EBC" unicode="&#x1ebc;" horiz-adv-x="555" 
d="M237 727.5q-5 10.5 -5 36.5q0 20 21 42t50.5 36.5t53.5 14.5q44 0 90 -35q19 -15 34 -21t32 -6q12 0 22 6.5t20 16t15 14.5q4 4 9 4q4 0 8 -5t5 -5q2 0 2 -9q0 -28 -19 -52.5t-44 -39.5t-40 -15q-23 0 -41.5 7.5t-44.5 24.5q-19 15 -33.5 21t-30.5 6q-33 0 -87 -59
q-12 7 -17 17.5zM605 628q0 -18 -19.5 -33.5t-43.5 -21.5l-44 -3q-30 -2 -81 -5.5t-120 -9.5l-45 -179q63 10 104.5 16t92.5 10q39 -17 39 -46q0 -18 -18 -35t-41 -24l-57 -6q-91 -10 -146 -20q-12 -55 -34 -139l-8 -31q133 25 257 35q39 -17 39 -46q0 -18 -18 -35t-41 -24
q-190 -22 -268 -37q-9 -6 -39 -6q-28 0 -49.5 26t-21.5 54q0 11 3 21l114 451h-3q-1 11 -14 27q-1 2 -8 12.5t-7 20.5q2 29 38 46q75 10 210 19.5t193 10.5q36 -19 36 -48z" />
    <glyph glyph-name="F" unicode="F" horiz-adv-x="545" 
d="M579 634q0 -18 -19 -33.5t-43 -22.5l-12 -1q-129 -7 -236 -19l-56 -224q74 12 131 17t68 6l39 3q39 -17 39 -46q0 -18 -18 -35t-41 -24l-15 -2q-45 -5 -84 -8q-102 -9 -145 -16l-48 -193q-5 -21 -10.5 -30.5t-19 -14t-40.5 -4.5q-31 0 -45.5 10.5t-14.5 35.5q0 11 3 21
l137 541q11 44 23.5 58.5t45.5 14.5q35 0 57 -9q147 19 268 23q36 -19 36 -48z" />
    <glyph glyph-name="G" unicode="G" horiz-adv-x="623" 
d="M543.5 350.5q19.5 -14.5 24.5 -35t5 -52.5q0 -84 -46 -148.5t-120 -100t-157 -35.5q-120 0 -176 67t-56 164q0 115 61.5 219.5t152 168t170.5 63.5q112 0 162 -44.5t50 -129.5q0 -30 -22.5 -51t-60.5 -21q-30 0 -40.5 16t-10.5 41l1 32q0 18 -20 35t-37 17
q-56 0 -123 -50.5t-113 -136t-46 -185.5q0 -46 36 -75t91 -29q39 0 82 23.5t72.5 64t29.5 86.5q-14 -2 -41 -9q-39 -10 -66.5 -15t-54.5 -5q-32 0 -47.5 8.5t-15.5 30.5q0 15 7.5 35t18.5 29q50 13 115.5 25t113.5 12q41 0 60.5 -14.5z" />
    <glyph glyph-name="uni01F4" unicode="&#x1f4;" horiz-adv-x="623" 
d="M471.5 826q39.5 38 78 67.5t49.5 29.5q21 0 48 -19t27 -35q0 -13 -14 -26t-57 -43q-61 -43 -93 -59.5t-58 -16.5q-19 0 -28 7t-9 24q0 8 3 12q14 21 53.5 59zM543.5 350.5q19.5 -14.5 24.5 -35t5 -52.5q0 -84 -46 -148.5t-120 -100t-157 -35.5q-120 0 -176 67t-56 164
q0 115 61.5 219.5t152 168t170.5 63.5q112 0 162 -44.5t50 -129.5q0 -30 -22.5 -51t-60.5 -21q-30 0 -40.5 16t-10.5 41l1 32q0 18 -20 35t-37 17q-56 0 -123 -50.5t-113 -136t-46 -185.5q0 -46 36 -75t91 -29q39 0 82 23.5t72.5 64t29.5 86.5q-14 -2 -41 -9
q-39 -10 -66.5 -15t-54.5 -5q-32 0 -47.5 8.5t-15.5 30.5q0 15 7.5 35t18.5 29q50 13 115.5 25t113.5 12q41 0 60.5 -14.5z" />
    <glyph glyph-name="Gbreve" unicode="&#x11e;" horiz-adv-x="623" 
d="M356 731.5q-37 24.5 -37 69.5q0 55 53 55q33 0 34 -32q1 -20 11 -28t45 -8q32 0 50 6.5t28.5 19t23.5 37.5q7 6 16.5 10t17.5 4q35 0 44 -14q-10 -70 -63 -106t-125 -38q-61 0 -98 24.5zM543.5 350.5q19.5 -14.5 24.5 -35t5 -52.5q0 -84 -46 -148.5t-120 -100t-157 -35.5
q-120 0 -176 67t-56 164q0 115 61.5 219.5t152 168t170.5 63.5q112 0 162 -44.5t50 -129.5q0 -30 -22.5 -51t-60.5 -21q-30 0 -40.5 16t-10.5 41l1 32q0 18 -20 35t-37 17q-56 0 -123 -50.5t-113 -136t-46 -185.5q0 -46 36 -75t91 -29q39 0 82 23.5t72.5 64t29.5 86.5
q-14 -2 -41 -9q-39 -10 -66.5 -15t-54.5 -5q-32 0 -47.5 8.5t-15.5 30.5q0 15 7.5 35t18.5 29q50 13 115.5 25t113.5 12q41 0 60.5 -14.5z" />
    <glyph glyph-name="Gcaron" unicode="&#x1e6;" horiz-adv-x="623" 
d="M404.5 722.5q-15.5 9.5 -38.5 39.5l-51 66q-10 13 -10 25q0 16 15.5 27.5t36.5 11.5q20 0 38 -21l55 -66q60 52 88.5 73t41.5 21q20 0 35.5 -9t15.5 -24q0 -11 -3.5 -20t-17.5 -20l-22 -18q-75 -62 -103 -83q-15 -12 -45 -12q-20 0 -35.5 9.5zM543.5 350.5
q19.5 -14.5 24.5 -35t5 -52.5q0 -84 -46 -148.5t-120 -100t-157 -35.5q-120 0 -176 67t-56 164q0 115 61.5 219.5t152 168t170.5 63.5q112 0 162 -44.5t50 -129.5q0 -30 -22.5 -51t-60.5 -21q-30 0 -40.5 16t-10.5 41l1 32q0 18 -20 35t-37 17q-56 0 -123 -50.5t-113 -136
t-46 -185.5q0 -46 36 -75t91 -29q39 0 82 23.5t72.5 64t29.5 86.5q-14 -2 -41 -9q-39 -10 -66.5 -15t-54.5 -5q-32 0 -47.5 8.5t-15.5 30.5q0 15 7.5 35t18.5 29q50 13 115.5 25t113.5 12q41 0 60.5 -14.5z" />
    <glyph glyph-name="Gcircumflex" unicode="&#x11c;" horiz-adv-x="623" 
d="M516.5 880.5q15.5 -9.5 38.5 -39.5l51 -66q10 -13 10 -25q0 -16 -15.5 -27.5t-36.5 -11.5q-20 0 -38 21l-55 66q-60 -52 -88.5 -73t-41.5 -21q-20 0 -35.5 9t-15.5 24q0 11 3.5 20t17.5 20l22 18q75 62 103 83q15 12 45 12q20 0 35.5 -9.5zM543.5 350.5
q19.5 -14.5 24.5 -35t5 -52.5q0 -84 -46 -148.5t-120 -100t-157 -35.5q-120 0 -176 67t-56 164q0 115 61.5 219.5t152 168t170.5 63.5q112 0 162 -44.5t50 -129.5q0 -30 -22.5 -51t-60.5 -21q-30 0 -40.5 16t-10.5 41l1 32q0 18 -20 35t-37 17q-56 0 -123 -50.5t-113 -136
t-46 -185.5q0 -46 36 -75t91 -29q39 0 82 23.5t72.5 64t29.5 86.5q-14 -2 -41 -9q-39 -10 -66.5 -15t-54.5 -5q-32 0 -47.5 8.5t-15.5 30.5q0 15 7.5 35t18.5 29q50 13 115.5 25t113.5 12q41 0 60.5 -14.5z" />
    <glyph glyph-name="Gcommaaccent" unicode="&#x122;" horiz-adv-x="623" 
d="M543.5 350.5q19.5 -14.5 24.5 -35t5 -52.5q0 -84 -46 -148.5t-120 -100t-157 -35.5q-120 0 -176 67t-56 164q0 115 61.5 219.5t152 168t170.5 63.5q112 0 162 -44.5t50 -129.5q0 -30 -22.5 -51t-60.5 -21q-30 0 -40.5 16t-10.5 41l1 32q0 18 -20 35t-37 17
q-56 0 -123 -50.5t-113 -136t-46 -185.5q0 -46 36 -75t91 -29q39 0 82 23.5t72.5 64t29.5 86.5q-14 -2 -41 -9q-39 -10 -66.5 -15t-54.5 -5q-32 0 -47.5 8.5t-15.5 30.5q0 15 7.5 35t18.5 29q50 13 115.5 25t113.5 12q41 0 60.5 -14.5zM150 -283q0 19 8.5 34.5t25.5 40.5
q18 23 26.5 40t8.5 36q0 7 -2 18t-2 19q0 18 12 28.5t49 10.5q26 0 42.5 -16.5t16.5 -31.5q0 -35 -26 -74.5t-75 -95.5q-28 -28 -56 -28t-28 19z" />
    <glyph glyph-name="Gdotaccent" unicode="&#x120;" horiz-adv-x="623" 
d="M461 731.5q-21 18.5 -21 41.5q0 34 28 59t62 25q25 0 45 -21.5t20 -46.5q0 -32 -27 -54t-63 -22q-23 0 -44 18.5zM543.5 350.5q19.5 -14.5 24.5 -35t5 -52.5q0 -84 -46 -148.5t-120 -100t-157 -35.5q-120 0 -176 67t-56 164q0 115 61.5 219.5t152 168t170.5 63.5
q112 0 162 -44.5t50 -129.5q0 -30 -22.5 -51t-60.5 -21q-30 0 -40.5 16t-10.5 41l1 32q0 18 -20 35t-37 17q-56 0 -123 -50.5t-113 -136t-46 -185.5q0 -46 36 -75t91 -29q39 0 82 23.5t72.5 64t29.5 86.5q-14 -2 -41 -9q-39 -10 -66.5 -15t-54.5 -5q-32 0 -47.5 8.5
t-15.5 30.5q0 15 7.5 35t18.5 29q50 13 115.5 25t113.5 12q41 0 60.5 -14.5z" />
    <glyph glyph-name="uni1E20" unicode="&#x1e20;" horiz-adv-x="623" 
d="M646 753q-19 -13 -49 -15l-209 -11q-28 -4 -43 -4q-44 3 -47 40v8q2 22 14.5 34t39.5 17.5t77 7.5l189 8q47 -3 48 -40v-7q-1 -25 -20 -38zM543.5 350.5q19.5 -14.5 24.5 -35t5 -52.5q0 -84 -46 -148.5t-120 -100t-157 -35.5q-120 0 -176 67t-56 164q0 115 61.5 219.5
t152 168t170.5 63.5q112 0 162 -44.5t50 -129.5q0 -30 -22.5 -51t-60.5 -21q-30 0 -40.5 16t-10.5 41l1 32q0 18 -20 35t-37 17q-56 0 -123 -50.5t-113 -136t-46 -185.5q0 -46 36 -75t91 -29q39 0 82 23.5t72.5 64t29.5 86.5q-14 -2 -41 -9q-39 -10 -66.5 -15t-54.5 -5
q-32 0 -47.5 8.5t-15.5 30.5q0 15 7.5 35t18.5 29q50 13 115.5 25t113.5 12q41 0 60.5 -14.5z" />
    <glyph glyph-name="H" unicode="H" horiz-adv-x="708" 
d="M206 250l-54 -214q-7 -29 -20.5 -39t-53.5 -10q-31 0 -45.5 10.5t-14.5 35.5q0 11 3 21l137 541q11 44 23.5 58.5t45.5 14.5q27 0 49.5 -6t23.5 -18q0 -2 -13 -54q-20 -77 -57 -234q148 30 281 41l46 186q10 40 27.5 59.5t47.5 25.5q37 -7 48.5 -11.5t15.5 -13.5
q-13 -37 -19.5 -68.5t-7.5 -37.5q-13 -70 -31 -143q39 -17 39 -46t-62 -49q-11 -40 -41 -174q-7 -37 -20 -92q-14 -55 -44 -55q-92 0 -92 43q0 9 67 271q-197 -24 -279 -42z" />
    <glyph glyph-name="Hbar" unicode="&#x126;" horiz-adv-x="724" 
d="M174 595q11 44 23.5 58.5t45.5 14.5q27 0 49.5 -6t23.5 -18q0 -3 -6 -26q-8 -27 -18 -70l278 29q10 42 29 63.5t49 27.5q37 -7 48.5 -11.5t15.5 -13.5q-7 -18 -15 -48l13 2h11q46 0 50 -37v-7q0 -24 -17 -34.5t-49 -13.5l-27 -3q-5 -30 -24 -108q39 -17 39 -46t-62 -49
q-11 -40 -41 -174q-7 -37 -20 -92q-14 -55 -44 -55q-92 0 -92 43q0 9 67 271q-197 -24 -279 -42l-54 -214q-7 -29 -20.5 -39t-53.5 -10q-31 0 -45.5 10.5t-14.5 35.5q0 11 3 21l97 383l-64 -8q-4 -1 -11 -1q-15 0 -21.5 9t-9.5 25v8q0 26 10.5 37t39.5 15l80 10zM527 397
l22 89l-280 -33l-23 -97q148 30 281 41z" />
    <glyph glyph-name="uni1E2A" unicode="&#x1e2a;" horiz-adv-x="724" 
d="M222 250l-54 -214q-7 -29 -20.5 -39t-53.5 -10q-31 0 -45.5 10.5t-14.5 35.5q0 11 3 21l137 541q11 44 23.5 58.5t45.5 14.5q27 0 49.5 -6t23.5 -18q0 -2 -13 -54q-20 -77 -57 -234q148 30 281 41l46 186q10 40 27.5 59.5t47.5 25.5q37 -7 48.5 -11.5t15.5 -13.5
q-13 -37 -19.5 -68.5t-7.5 -37.5q-13 -70 -31 -143q39 -17 39 -46t-62 -49q-11 -40 -41 -174q-7 -37 -20 -92q-14 -55 -44 -55q-92 0 -92 43q0 9 67 271q-197 -24 -279 -42zM158 -203.5q-37 24.5 -37 69.5q0 55 53 55q27 0 28 -36q1 -19 12.5 -27.5t47.5 -8.5q32 0 50.5 7.5
t29.5 21t24 38.5q7 6 16.5 10t17.5 4q35 0 44 -14q-10 -70 -63 -106t-125 -38q-61 0 -98 24.5z" />
    <glyph glyph-name="Hcircumflex" unicode="&#x124;" horiz-adv-x="724" 
d="M539.5 883.5q15.5 -9.5 38.5 -39.5l51 -66q10 -13 10 -25q0 -16 -15.5 -27.5t-36.5 -11.5q-20 0 -38 21l-55 66q-60 -52 -88.5 -73t-41.5 -21q-20 0 -35.5 9t-15.5 24q0 11 3.5 20t17.5 20l22 18q75 62 103 83q15 12 45 12q20 0 35.5 -9.5zM222 250l-54 -214
q-7 -29 -20.5 -39t-53.5 -10q-31 0 -45.5 10.5t-14.5 35.5q0 11 3 21l137 541q11 44 23.5 58.5t45.5 14.5q27 0 49.5 -6t23.5 -18q0 -2 -13 -54q-20 -77 -57 -234q148 30 281 41l46 186q10 40 27.5 59.5t47.5 25.5q37 -7 48.5 -11.5t15.5 -13.5q-13 -37 -19.5 -68.5
t-7.5 -37.5q-13 -70 -31 -143q39 -17 39 -46t-62 -49q-11 -40 -41 -174q-7 -37 -20 -92q-14 -55 -44 -55q-92 0 -92 43q0 9 67 271q-197 -24 -279 -42z" />
    <glyph glyph-name="uni1E24" unicode="&#x1e24;" horiz-adv-x="724" 
d="M222 250l-54 -214q-7 -29 -20.5 -39t-53.5 -10q-31 0 -45.5 10.5t-14.5 35.5q0 11 3 21l137 541q11 44 23.5 58.5t45.5 14.5q27 0 49.5 -6t23.5 -18q0 -2 -13 -54q-20 -77 -57 -234q148 30 281 41l46 186q10 40 27.5 59.5t47.5 25.5q37 -7 48.5 -11.5t15.5 -13.5
q-13 -37 -19.5 -68.5t-7.5 -37.5q-13 -70 -31 -143q39 -17 39 -46t-62 -49q-11 -40 -41 -174q-7 -37 -20 -92q-14 -55 -44 -55q-92 0 -92 43q0 9 67 271q-197 -24 -279 -42zM226 -196.5q-21 18.5 -21 41.5q0 34 28 59t62 25q25 0 45 -21.5t20 -46.5q0 -32 -27 -54t-63 -22
q-23 0 -44 18.5z" />
    <glyph glyph-name="I" unicode="I" horiz-adv-x="396" 
d="M90.5 539.5q-10.5 14.5 -10.5 34.5q0 29 39 46q143 29 288 41q39 -17 39 -46q0 -18 -18 -35t-41 -24l-55 -7q-17 -75 -78 -323l-28 -112l77 8q39 -17 39 -46q0 -18 -18 -35t-41 -24l-40 -5q-147 -16 -226 -33q-20 7 -30.5 21.5t-10.5 34.5q0 29 39 46q50 10 76 14
l110 437q-41 -6 -80 -14q-20 7 -30.5 21.5z" />
    <glyph glyph-name="IJ" unicode="&#x132;" horiz-adv-x="865" 
d="M867.5 662q20.5 -6 22.5 -18q0 -25 -40 -193t-74 -298q-19 -72 -73.5 -118.5t-143.5 -46.5q-73 0 -115.5 27.5t-59 65.5t-16.5 75q0 58 14.5 84.5t50.5 26.5q35 0 55 -9.5t20 -24.5q0 -10 -16 -32q-17 -23 -17 -33q1 -47 21.5 -65t57.5 -18q26 0 50.5 21t39.5 77l97 375
q-65 -11 -107 -20q-20 7 -30.5 21.5t-10.5 34.5q0 29 39 46q79 16 115 21.5t73 6.5q27 0 47.5 -6zM90.5 539.5q-10.5 14.5 -10.5 34.5q0 29 39 46q143 29 288 41q39 -17 39 -46q0 -18 -18 -35t-41 -24l-55 -7q-17 -75 -78 -323l-28 -112l77 8q39 -17 39 -46q0 -18 -18 -35
t-41 -24l-40 -5q-147 -16 -226 -33q-20 7 -30.5 21.5t-10.5 34.5q0 29 39 46q50 10 76 14l110 437q-41 -6 -80 -14q-20 7 -30.5 21.5z" />
    <glyph glyph-name="Iacute" unicode="&#xcd;" horiz-adv-x="396" 
d="M222.5 805q39.5 38 78 67.5t49.5 29.5q21 0 48 -19t27 -35q0 -13 -14 -26t-57 -43q-61 -43 -93 -59.5t-58 -16.5q-19 0 -28 7t-9 24q0 8 3 12q14 21 53.5 59zM90.5 539.5q-10.5 14.5 -10.5 34.5q0 29 39 46q143 29 288 41q39 -17 39 -46q0 -18 -18 -35t-41 -24l-55 -7
q-17 -75 -78 -323l-28 -112l77 8q39 -17 39 -46q0 -18 -18 -35t-41 -24l-40 -5q-147 -16 -226 -33q-20 7 -30.5 21.5t-10.5 34.5q0 29 39 46q50 10 76 14l110 437q-41 -6 -80 -14q-20 7 -30.5 21.5z" />
    <glyph glyph-name="Ibreve" unicode="&#x12c;" horiz-adv-x="396" 
d="M189 732.5q-37 24.5 -37 69.5q0 55 53 55q33 0 34 -32q1 -20 11 -28t45 -8q32 0 50 6.5t28.5 19t23.5 37.5q7 6 16.5 10t17.5 4q35 0 44 -14q-10 -70 -63 -106t-125 -38q-61 0 -98 24.5zM90.5 539.5q-10.5 14.5 -10.5 34.5q0 29 39 46q143 29 288 41q39 -17 39 -46
q0 -18 -18 -35t-41 -24l-55 -7q-17 -75 -78 -323l-28 -112l77 8q39 -17 39 -46q0 -18 -18 -35t-41 -24l-40 -5q-147 -16 -226 -33q-20 7 -30.5 21.5t-10.5 34.5q0 29 39 46q50 10 76 14l110 437q-41 -6 -80 -14q-20 7 -30.5 21.5z" />
    <glyph glyph-name="uni01CF" unicode="&#x1cf;" horiz-adv-x="396" 
d="M253.5 722.5q-15.5 9.5 -38.5 39.5l-51 66q-10 13 -10 25q0 16 15.5 27.5t36.5 11.5q20 0 38 -21l55 -66q60 52 88.5 73t41.5 21q20 0 35.5 -9t15.5 -24q0 -11 -3.5 -20t-17.5 -20l-22 -18q-75 -62 -103 -83q-15 -12 -45 -12q-20 0 -35.5 9.5zM90.5 539.5
q-10.5 14.5 -10.5 34.5q0 29 39 46q143 29 288 41q39 -17 39 -46q0 -18 -18 -35t-41 -24l-55 -7q-17 -75 -78 -323l-28 -112l77 8q39 -17 39 -46q0 -18 -18 -35t-41 -24l-40 -5q-147 -16 -226 -33q-20 7 -30.5 21.5t-10.5 34.5q0 29 39 46q50 10 76 14l110 437
q-41 -6 -80 -14q-20 7 -30.5 21.5z" />
    <glyph glyph-name="Icircumflex" unicode="&#xce;" horiz-adv-x="396" 
d="M345.5 882.5q15.5 -9.5 38.5 -39.5l51 -66q10 -13 10 -25q0 -16 -15.5 -27.5t-36.5 -11.5q-20 0 -38 21l-55 66q-60 -52 -88.5 -73t-41.5 -21q-20 0 -35.5 9t-15.5 24q0 11 3.5 20t17.5 20l22 18q75 62 103 83q15 12 45 12q20 0 35.5 -9.5zM90.5 539.5
q-10.5 14.5 -10.5 34.5q0 29 39 46q143 29 288 41q39 -17 39 -46q0 -18 -18 -35t-41 -24l-55 -7q-17 -75 -78 -323l-28 -112l77 8q39 -17 39 -46q0 -18 -18 -35t-41 -24l-40 -5q-147 -16 -226 -33q-20 7 -30.5 21.5t-10.5 34.5q0 29 39 46q50 10 76 14l110 437
q-41 -6 -80 -14q-20 7 -30.5 21.5z" />
    <glyph glyph-name="uni0208" unicode="&#x208;" horiz-adv-x="396" 
d="M253 721.5q-5 -14.5 -15 -14.5l-4 1q-10 3 -20.5 13.5t-25.5 29.5q-24 27 -38 40.5t-32 19.5q-11 4 -17 9.5t-6 18.5q0 23 12.5 45t33.5 22q53 0 111 -132q6 -13 6 -26q0 -12 -5 -26.5zM428 721.5q-5 -14.5 -15 -14.5l-4 1q-10 3 -20.5 13.5t-25.5 29.5q-24 27 -38 40.5
t-32 19.5q-11 4 -17 9.5t-6 18.5q0 23 12.5 45t33.5 22q53 0 111 -132q6 -13 6 -26q0 -12 -5 -26.5zM90.5 539.5q-10.5 14.5 -10.5 34.5q0 29 39 46q143 29 288 41q39 -17 39 -46q0 -18 -18 -35t-41 -24l-55 -7q-17 -75 -78 -323l-28 -112l77 8q39 -17 39 -46q0 -18 -18 -35
t-41 -24l-40 -5q-147 -16 -226 -33q-20 7 -30.5 21.5t-10.5 34.5q0 29 39 46q50 10 76 14l110 437q-41 -6 -80 -14q-20 7 -30.5 21.5z" />
    <glyph glyph-name="Idieresis" unicode="&#xcf;" horiz-adv-x="396" 
d="M347 719q-23 20 -23 42q0 35 26 57.5t60 22.5q26 0 49 -20t23 -44q0 -32 -26.5 -55t-62.5 -23q-23 0 -46 20zM121 713.5q-21 18.5 -21 41.5q0 34 28 59t62 25q25 0 45 -21.5t20 -46.5q0 -32 -27 -54t-63 -22q-23 0 -44 18.5zM90.5 539.5q-10.5 14.5 -10.5 34.5
q0 29 39 46q143 29 288 41q39 -17 39 -46q0 -18 -18 -35t-41 -24l-55 -7q-17 -75 -78 -323l-28 -112l77 8q39 -17 39 -46q0 -18 -18 -35t-41 -24l-40 -5q-147 -16 -226 -33q-20 7 -30.5 21.5t-10.5 34.5q0 29 39 46q50 10 76 14l110 437q-41 -6 -80 -14q-20 7 -30.5 21.5z
" />
    <glyph glyph-name="Idotaccent" unicode="&#x130;" horiz-adv-x="396" 
d="M241 727.5q-21 18.5 -21 41.5q0 34 28 59t62 25q25 0 45 -21.5t20 -46.5q0 -32 -27 -54t-63 -22q-23 0 -44 18.5zM90.5 539.5q-10.5 14.5 -10.5 34.5q0 29 39 46q143 29 288 41q39 -17 39 -46q0 -18 -18 -35t-41 -24l-55 -7q-17 -75 -78 -323l-28 -112l77 8
q39 -17 39 -46q0 -18 -18 -35t-41 -24l-40 -5q-147 -16 -226 -33q-20 7 -30.5 21.5t-10.5 34.5q0 29 39 46q50 10 76 14l110 437q-41 -6 -80 -14q-20 7 -30.5 21.5z" />
    <glyph glyph-name="uni1ECA" unicode="&#x1eca;" horiz-adv-x="396" 
d="M90.5 539.5q-10.5 14.5 -10.5 34.5q0 29 39 46q143 29 288 41q39 -17 39 -46q0 -18 -18 -35t-41 -24l-55 -7q-17 -75 -78 -323l-28 -112l77 8q39 -17 39 -46q0 -18 -18 -35t-41 -24l-40 -5q-147 -16 -226 -33q-20 7 -30.5 21.5t-10.5 34.5q0 29 39 46q50 10 76 14
l110 437q-41 -6 -80 -14q-20 7 -30.5 21.5zM58 -196.5q-21 18.5 -21 41.5q0 34 28 59t62 25q25 0 45 -21.5t20 -46.5q0 -32 -27 -54t-63 -22q-23 0 -44 18.5z" />
    <glyph glyph-name="Igrave" unicode="&#xcc;" horiz-adv-x="396" 
d="M364 736q0 -17 -9 -24t-28 -7q-26 0 -58 16.5t-93 59.5q-43 30 -57 43t-14 26q0 16 27 35t48 19q11 0 49.5 -29.5t78 -67.5t53.5 -59q3 -4 3 -12zM90.5 539.5q-10.5 14.5 -10.5 34.5q0 29 39 46q143 29 288 41q39 -17 39 -46q0 -18 -18 -35t-41 -24l-55 -7
q-17 -75 -78 -323l-28 -112l77 8q39 -17 39 -46q0 -18 -18 -35t-41 -24l-40 -5q-147 -16 -226 -33q-20 7 -30.5 21.5t-10.5 34.5q0 29 39 46q50 10 76 14l110 437q-41 -6 -80 -14q-20 7 -30.5 21.5z" />
    <glyph glyph-name="uni1EC8" unicode="&#x1ec8;" horiz-adv-x="396" 
d="M281 702q-16 0 -25 5t-9 14q0 7 16 66q4 16 17 24t38 16t37 16.5t12 26.5q0 8 -8.5 15t-28.5 7q-21 0 -31.5 -4.5t-11.5 -5.5t-8.5 -4.5t-18.5 -3.5q-10 0 -17.5 10t-7.5 21q0 29 32.5 40t76.5 11q43 0 76 -19t33 -56q0 -38 -24 -60.5t-62 -37.5q-18 -7 -25 -17
t-10 -20.5t-5 -16.5q-15 -27 -46 -27zM90.5 539.5q-10.5 14.5 -10.5 34.5q0 29 39 46q143 29 288 41q39 -17 39 -46q0 -18 -18 -35t-41 -24l-55 -7q-17 -75 -78 -323l-28 -112l77 8q39 -17 39 -46q0 -18 -18 -35t-41 -24l-40 -5q-147 -16 -226 -33q-20 7 -30.5 21.5
t-10.5 34.5q0 29 39 46q50 10 76 14l110 437q-41 -6 -80 -14q-20 7 -30.5 21.5z" />
    <glyph glyph-name="uni020A" unicode="&#x20a;" horiz-adv-x="396" 
d="M438.5 834q41.5 -22 41.5 -65q0 -56 -49 -56q-41 0 -43 28q-2 34 -56 34q-87 0 -104 -56q-2 -8 -14.5 -13.5t-21.5 -5.5q-25 0 -38 5t-13 19q0 123 197 132q59 0 100.5 -22zM90.5 539.5q-10.5 14.5 -10.5 34.5q0 29 39 46q143 29 288 41q39 -17 39 -46q0 -18 -18 -35
t-41 -24l-55 -7q-17 -75 -78 -323l-28 -112l77 8q39 -17 39 -46q0 -18 -18 -35t-41 -24l-40 -5q-147 -16 -226 -33q-20 7 -30.5 21.5t-10.5 34.5q0 29 39 46q50 10 76 14l110 437q-41 -6 -80 -14q-20 7 -30.5 21.5z" />
    <glyph glyph-name="Imacron" unicode="&#x12a;" horiz-adv-x="396" 
d="M408 747l-209 -23q-28 -4 -43 -4q-44 3 -47 40v8q1 21 13.5 32t38 16t79.5 11l189 20q47 -3 48 -40v-7q-3 -46 -69 -53zM90.5 539.5q-10.5 14.5 -10.5 34.5q0 29 39 46q143 29 288 41q39 -17 39 -46q0 -18 -18 -35t-41 -24l-55 -7q-17 -75 -78 -323l-28 -112l77 8
q39 -17 39 -46q0 -18 -18 -35t-41 -24l-40 -5q-147 -16 -226 -33q-20 7 -30.5 21.5t-10.5 34.5q0 29 39 46q50 10 76 14l110 437q-41 -6 -80 -14q-20 7 -30.5 21.5z" />
    <glyph glyph-name="Iogonek" unicode="&#x12e;" horiz-adv-x="396" 
d="M446 615q0 -18 -18 -35t-41 -24l-55 -7q-17 -75 -78 -323l-28 -112l77 8q39 -17 39 -46q0 -16 -15 -31h1q-37 -34 -54 -60.5t-17 -55.5q0 -45 45 -45q23 0 48 6q14 -10 14 -20q0 -25 -33 -35t-67 -10q-48 0 -81.5 25t-33.5 79q0 18 12.5 38.5t35.5 39.5
q-118 -14 -180 -28q-20 7 -30.5 21.5t-10.5 34.5q0 29 39 46q50 10 76 14l110 437q-41 -6 -80 -14q-20 7 -30.5 21.5t-10.5 34.5q0 29 39 46q143 29 288 41q39 -17 39 -46z" />
    <glyph glyph-name="Itilde" unicode="&#x128;" horiz-adv-x="396" 
d="M153 710q-12 7 -17 17.5t-5 36.5q0 20 21 42t50.5 36.5t53.5 14.5q44 0 90 -35q19 -15 34 -21t32 -6q12 0 22 6.5t20 16t15 14.5q4 4 9 4q4 0 8 -5t5 -5q2 0 2 -9q0 -28 -19 -52.5t-44 -39.5t-40 -15q-23 0 -41.5 7.5t-44.5 24.5q-19 15 -33.5 21t-30.5 6q-33 0 -87 -59z
M90.5 539.5q-10.5 14.5 -10.5 34.5q0 29 39 46q143 29 288 41q39 -17 39 -46q0 -18 -18 -35t-41 -24l-55 -7q-17 -75 -78 -323l-28 -112l77 8q39 -17 39 -46q0 -18 -18 -35t-41 -24l-40 -5q-147 -16 -226 -33q-20 7 -30.5 21.5t-10.5 34.5q0 29 39 46q50 10 76 14l110 437
q-41 -6 -80 -14q-20 7 -30.5 21.5z" />
    <glyph glyph-name="J" unicode="J" horiz-adv-x="469" 
d="M471.5 662q20.5 -6 22.5 -18q0 -25 -40 -193t-74 -298q-19 -72 -73.5 -118.5t-143.5 -46.5q-73 0 -115.5 27.5t-59 65.5t-16.5 75q0 58 14.5 84.5t50.5 26.5q35 0 55 -9.5t20 -24.5q0 -10 -16 -32q-17 -23 -17 -33q1 -47 21.5 -65t57.5 -18q26 0 50.5 21t39.5 77l97 375
q-65 -11 -107 -20q-20 7 -30.5 21.5t-10.5 34.5q0 29 39 46q79 16 115 21.5t73 6.5q27 0 47.5 -6z" />
    <glyph glyph-name="Jcircumflex" unicode="&#x134;" horiz-adv-x="469" 
d="M460.5 879.5q15.5 -9.5 38.5 -39.5l51 -66q10 -13 10 -25q0 -16 -15.5 -27.5t-36.5 -11.5q-20 0 -38 21l-55 66q-60 -52 -88.5 -73t-41.5 -21q-20 0 -35.5 9t-15.5 24q0 11 3.5 20t17.5 20l22 18q75 62 103 83q15 12 45 12q20 0 35.5 -9.5zM471.5 662q20.5 -6 22.5 -18
q0 -25 -40 -193t-74 -298q-19 -72 -73.5 -118.5t-143.5 -46.5q-73 0 -115.5 27.5t-59 65.5t-16.5 75q0 58 14.5 84.5t50.5 26.5q35 0 55 -9.5t20 -24.5q0 -10 -16 -32q-17 -23 -17 -33q1 -47 21.5 -65t57.5 -18q26 0 50.5 21t39.5 77l97 375q-65 -11 -107 -20
q-20 7 -30.5 21.5t-10.5 34.5q0 29 39 46q79 16 115 21.5t73 6.5q27 0 47.5 -6z" />
    <glyph glyph-name="K" unicode="K" horiz-adv-x="608" 
d="M651 583q0 -10 -4 -14q-6 -7 -33 -20t-36 -17q-29 -13 -86.5 -58.5t-108 -94t-60.5 -67.5q9 -31 48 -84.5t79.5 -96.5t52.5 -43l10 -1q12 -2 28 -22t16 -37q0 -14 -17 -17q-11 -2 -32 -10q-19 -7 -37 -7q-21 0 -32 5q-31 13 -81.5 63.5t-93.5 113.5t-56 111l-63 -251
q-7 -29 -21.5 -39t-54.5 -10q-31 0 -45.5 10.5t-14.5 35.5q0 11 3 21l121 466l-3 106q4 17 25.5 27t39.5 10q27 0 53.5 -21.5t27.5 -52.5q0 -22 -50 -228q35 48 104.5 116t139.5 121t110 60q10 0 29 -4.5t25 -18.5q17 -34 17 -52z" />
    <glyph glyph-name="Kcommaaccent" unicode="&#x136;" horiz-adv-x="608" 
d="M651 583q0 -10 -4 -14q-6 -7 -33 -20t-36 -17q-29 -13 -86.5 -58.5t-108 -94t-60.5 -67.5q9 -31 48 -84.5t79.5 -96.5t52.5 -43l10 -1q12 -2 28 -22t16 -37q0 -14 -17 -17q-11 -2 -32 -10q-19 -7 -37 -7q-21 0 -32 5q-31 13 -81.5 63.5t-93.5 113.5t-56 111l-63 -251
q-7 -29 -21.5 -39t-54.5 -10q-31 0 -45.5 10.5t-14.5 35.5q0 11 3 21l121 466l-3 106q4 17 25.5 27t39.5 10q27 0 53.5 -21.5t27.5 -52.5q0 -22 -50 -228q35 48 104.5 116t139.5 121t110 60q10 0 29 -4.5t25 -18.5q17 -34 17 -52zM318.5 -72.5q16.5 -16.5 16.5 -31.5
q0 -35 -26 -74.5t-75 -95.5q-28 -28 -56 -28t-28 19t8.5 34.5t25.5 40.5q18 23 26.5 40t8.5 36q0 7 -2 18t-2 19q0 18 12 28.5t49 10.5q26 0 42.5 -16.5z" />
    <glyph glyph-name="L" unicode="L" horiz-adv-x="462" 
d="M458 81q0 -18 -18 -35t-41 -24q-55 -6 -78 -7q-134 -11 -189 -21q-9 -6 -38 -6q-28 0 -49.5 26t-21.5 54q0 11 3 21l128 506q11 44 23.5 58.5t45.5 14.5q27 0 46.5 -6t20.5 -18q0 -28 -129 -544q88 15 224 24l34 3q39 -17 39 -46z" />
    <glyph glyph-name="uni01C7" unicode="&#x1c7;" horiz-adv-x="931" 
d="M933.5 662q20.5 -6 22.5 -18q0 -25 -40 -193t-74 -298q-19 -72 -73.5 -118.5t-143.5 -46.5q-121 0 -169 82q-5 -15 -21.5 -28.5t-35.5 -19.5q-55 -6 -78 -7q-134 -11 -189 -21q-9 -6 -38 -6q-28 0 -49.5 26t-21.5 54q0 11 3 21l128 506q11 44 23.5 58.5t45.5 14.5
q27 0 46.5 -6t20.5 -18q0 -28 -129 -544q88 15 224 24l34 3q10 -4 20 -11q-5 18 -5 40q0 58 14.5 84.5t50.5 26.5q35 0 55 -9.5t20 -24.5q0 -10 -16 -32q-17 -23 -17 -33q1 -47 21.5 -65t57.5 -18q26 0 50.5 21t39.5 77l97 375q-65 -11 -107 -20q-20 7 -30.5 21.5
t-10.5 34.5q0 29 39 46q79 16 115 21.5t73 6.5q27 0 47.5 -6z" />
    <glyph glyph-name="Lacute" unicode="&#x139;" horiz-adv-x="462" 
d="M449 889q27 -19 27 -35q0 -13 -14 -26t-57 -43q-61 -43 -93 -59.5t-58 -16.5q-19 0 -28 7t-9 24q0 8 3 12q14 21 53.5 59t78 67.5t49.5 29.5q21 0 48 -19zM458 81q0 -18 -18 -35t-41 -24q-55 -6 -78 -7q-134 -11 -189 -21q-9 -6 -38 -6q-28 0 -49.5 26t-21.5 54
q0 11 3 21l128 506q11 44 23.5 58.5t45.5 14.5q27 0 46.5 -6t20.5 -18q0 -28 -129 -544q88 15 224 24l34 3q39 -17 39 -46z" />
    <glyph glyph-name="Lcaron" unicode="&#x13d;" horiz-adv-x="462" 
d="M458 81q0 -18 -18 -35t-41 -24q-55 -6 -78 -7q-134 -11 -189 -21q-9 -6 -38 -6q-28 0 -49.5 26t-21.5 54q0 11 3 21l128 506q11 44 23.5 58.5t45.5 14.5q27 0 46.5 -6t20.5 -18q0 -28 -129 -544q88 15 224 24l34 3q39 -17 39 -46zM367 437q0 19 8.5 34.5t25.5 40.5
q18 23 26.5 40t8.5 36q0 7 -2 18t-2 19q0 18 12 28.5t49 10.5q26 0 42.5 -16.5t16.5 -31.5q0 -35 -26 -74.5t-75 -95.5q-28 -28 -56 -28t-28 19z" />
    <glyph glyph-name="Lcommaaccent" unicode="&#x13b;" horiz-adv-x="462" 
d="M458 81q0 -18 -18 -35t-41 -24q-55 -6 -78 -7q-134 -11 -189 -21q-9 -6 -38 -6q-28 0 -49.5 26t-21.5 54q0 11 3 21l128 506q11 44 23.5 58.5t45.5 14.5q27 0 46.5 -6t20.5 -18q0 -28 -129 -544q88 15 224 24l34 3q39 -17 39 -46zM270.5 -72.5q16.5 -16.5 16.5 -31.5
q0 -35 -26 -74.5t-75 -95.5q-28 -28 -56 -28t-28 19t8.5 34.5t25.5 40.5q18 23 26.5 40t8.5 36q0 7 -2 18t-2 19q0 18 12 28.5t49 10.5q26 0 42.5 -16.5z" />
    <glyph glyph-name="Ldot" unicode="&#x13f;" horiz-adv-x="462" 
d="M458 81q0 -18 -18 -35t-41 -24q-55 -6 -78 -7q-134 -11 -189 -21q-9 -6 -38 -6q-28 0 -49.5 26t-21.5 54q0 11 3 21l128 506q11 44 23.5 58.5t45.5 14.5q27 0 46.5 -6t20.5 -18q0 -28 -129 -544q88 15 224 24l34 3q39 -17 39 -46zM321 322.5q-21 18.5 -21 41.5
q0 34 28 59t62 25q25 0 45 -21.5t20 -46.5q0 -32 -27 -54t-63 -22q-23 0 -44 18.5z" />
    <glyph glyph-name="uni1E36" unicode="&#x1e36;" horiz-adv-x="462" 
d="M458 81q0 -18 -18 -35t-41 -24q-55 -6 -78 -7q-134 -11 -189 -21q-9 -6 -38 -6q-28 0 -49.5 26t-21.5 54q0 11 3 21l128 506q11 44 23.5 58.5t45.5 14.5q27 0 46.5 -6t20.5 -18q0 -28 -129 -544q88 15 224 24l34 3q39 -17 39 -46zM295 -92.5q20 -21.5 20 -46.5
q0 -32 -27 -54t-63 -22q-23 0 -44 18.5t-21 41.5q0 34 28 59t62 25q25 0 45 -21.5z" />
    <glyph glyph-name="uni1E38" unicode="&#x1e38;" horiz-adv-x="462" 
d="M56 763v8q2 22 14.5 34t39.5 17.5t77 7.5l189 8q47 -3 48 -40v-7q-1 -25 -20 -38t-49 -15l-209 -11q-28 -4 -43 -4q-44 3 -47 40zM458 81q0 -18 -18 -35t-41 -24q-55 -6 -78 -7q-134 -11 -189 -21q-9 -6 -38 -6q-28 0 -49.5 26t-21.5 54q0 11 3 21l128 506
q11 44 23.5 58.5t45.5 14.5q27 0 46.5 -6t20.5 -18q0 -28 -129 -544q88 15 224 24l34 3q39 -17 39 -46zM282 -92.5q20 -21.5 20 -46.5q0 -32 -27 -54t-63 -22q-23 0 -44 18.5t-21 41.5q0 34 28 59t62 25q25 0 45 -21.5z" />
    <glyph glyph-name="uni01C8" unicode="&#x1c8;" horiz-adv-x="787" 
d="M764.5 650q27.5 -23 27.5 -52t-28 -50t-65 -21q-36 0 -54.5 18.5t-18.5 48.5q0 31 19.5 55t54.5 24q37 0 64.5 -23zM321 15q-134 -11 -189 -21q-9 -6 -38 -6q-28 0 -49.5 26t-21.5 54q0 11 3 21l128 506q11 44 23.5 58.5t45.5 14.5q27 0 46.5 -6t20.5 -18
q0 -28 -129 -544q88 15 224 24l34 3q39 -17 39 -46q0 -18 -18 -35t-41 -24q-55 -6 -78 -7zM727.5 466.5q15.5 -20.5 18.5 -49.5q-66 -273 -106 -426q-27 -105 -79 -158t-147 -53q-46 0 -78.5 20t-48 50.5t-15.5 63.5q0 25 11.5 40t47.5 15q13 0 18.5 -10t9.5 -31
q6 -30 17 -46t42 -16q35 0 59.5 30t37.5 85l109 446l-27 30q-3 3 -3 7q0 10 22 16.5t61 6.5q35 0 50.5 -20.5z" />
    <glyph glyph-name="uni1E3A" unicode="&#x1e3a;" horiz-adv-x="462" 
d="M458 81q0 -18 -18 -35t-41 -24q-55 -6 -78 -7q-134 -11 -189 -21q-9 -6 -38 -6q-28 0 -49.5 26t-21.5 54q0 11 3 21l128 506q11 44 23.5 58.5t45.5 14.5q27 0 46.5 -6t20.5 -18q0 -28 -129 -544q88 15 224 24l34 3q39 -17 39 -46zM388 -82q11 -6 12 -24v-7
q-1 -25 -20 -38t-49 -15l-209 -11q-28 -4 -43 -4q-44 3 -47 40v8q1 21 13.5 31t38 14t79.5 6l189 8q25 -2 36 -8z" />
    <glyph glyph-name="Lslash" unicode="&#x141;" horiz-adv-x="462" 
d="M234 395l133 41l10 2q14 2 19 2h13q11 0 16.5 -2.5t8.5 -12.5l1 -7q1 -5 1 -13q0 -19 -13 -29t-40 -18l-171 -53l-12 -51l-39 -154q62 11 126 16.5t76 6.5q39 2 56 4q39 -17 39 -46q0 -28 -26 -42.5t-65 -20.5t-108 -11q-88 -6 -127 -13q-9 -6 -38 -6q-28 0 -49.5 26
t-21.5 54q0 11 3 21l43 171q-14 -2 -20 -2q-20 0 -26 14l-2 8q0 2 -1 3t-1 4q0 20 17 35t56 29l62 244q11 44 23.5 58.5t45.5 14.5q27 0 46.5 -6t20.5 -18q0 -18 -56 -249z" />
    <glyph glyph-name="M" unicode="M" horiz-adv-x="816" 
d="M793.5 656.5q11.5 -4.5 15.5 -13.5q-21 -81 -55 -229.5t-46 -199.5q-22 -102 -41 -181q-14 -55 -44 -55q-92 0 -92 43q0 -17 52 226l18 86l-199 -308q-16 -20 -47 -20q-26 0 -48.5 13t-19.5 26l-55 323l-82 -331q-7 -29 -21.5 -39t-54.5 -10q-31 0 -45.5 10.5t-14.5 35.5
q0 11 3 21l137 541q11 44 23.5 58.5t45.5 14.5q27 0 48 -6t22 -18v-2l80 -497q43 69 141.5 228t154.5 248q10 25 22.5 32.5t29 10.5t24.5 4q37 -7 48.5 -11.5zM531 21z" />
    <glyph glyph-name="uni1E42" unicode="&#x1e42;" horiz-adv-x="816" 
d="M793.5 656.5q11.5 -4.5 15.5 -13.5q-21 -81 -55 -229.5t-46 -199.5q-22 -102 -41 -181q-14 -55 -44 -55q-92 0 -92 43q0 -17 52 226l18 86l-199 -308q-16 -20 -47 -20q-26 0 -48.5 13t-19.5 26l-55 323l-82 -331q-7 -29 -21.5 -39t-54.5 -10q-31 0 -45.5 10.5t-14.5 35.5
q0 11 3 21l137 541q11 44 23.5 58.5t45.5 14.5q27 0 48 -6t22 -18v-2l80 -497q43 69 141.5 228t154.5 248q10 25 22.5 32.5t29 10.5t24.5 4q37 -7 48.5 -11.5zM531 21zM362 -92.5q20 -21.5 20 -46.5q0 -32 -27 -54t-63 -22q-23 0 -44 18.5t-21 41.5q0 34 28 59t62 25
q25 0 45 -21.5z" />
    <glyph glyph-name="N" unicode="N" horiz-adv-x="693" 
d="M666.5 656.5q11.5 -4.5 15.5 -13.5q-21 -81 -55 -229.5t-46 -199.5q-22 -102 -41 -181q-14 -55 -44 -55q-79 0 -90 32l-2 -2l-163 436l-62 -252q-18 -69 -39 -156q-7 -29 -21.5 -39t-54.5 -10q-31 0 -45.5 10.5t-14.5 35.5q0 11 3 21l137 541q11 44 23.5 58.5t45.5 14.5
q27 0 48 -6t22 -18v-3l161 -446q65 314 83 369q14 42 38 70t53 34q37 -7 48.5 -11.5zM282 645zM404 21z" />
    <glyph glyph-name="uni01CA" unicode="&#x1ca;" horiz-adv-x="1162" 
d="M666.5 656.5q11.5 -4.5 15.5 -13.5q-21 -81 -55 -229.5t-46 -199.5q-22 -102 -41 -181q-14 -55 -44 -55q-79 0 -90 32l-2 -2l-163 436l-62 -252q-18 -69 -39 -156q-7 -29 -21.5 -39t-54.5 -10q-31 0 -45.5 10.5t-14.5 35.5q0 11 3 21l137 541q11 44 23.5 58.5t45.5 14.5
q27 0 48 -6t22 -18v-3l161 -446q65 314 83 369q14 42 38 70t53 34q37 -7 48.5 -11.5zM1164.5 662q20.5 -6 22.5 -18q0 -25 -40 -193t-74 -298q-19 -72 -73.5 -118.5t-143.5 -46.5q-73 0 -115.5 27.5t-59 65.5t-16.5 75q0 58 14.5 84.5t50.5 26.5q35 0 55 -9.5t20 -24.5
q0 -10 -16 -32q-17 -23 -17 -33q1 -47 21.5 -65t57.5 -18q26 0 50.5 21t39.5 77l97 375q-65 -11 -107 -20q-20 7 -30.5 21.5t-10.5 34.5q0 29 39 46q79 16 115 21.5t73 6.5q27 0 47.5 -6zM282 645zM404 21z" />
    <glyph glyph-name="Nacute" unicode="&#x143;" horiz-adv-x="693" 
d="M396 720q-9 7 -9 24q0 8 3 12q14 21 53.5 59t78 67.5t49.5 29.5q21 0 48 -19t27 -35q0 -13 -14 -26t-57 -43q-61 -43 -93 -59.5t-58 -16.5q-19 0 -28 7zM666.5 656.5q11.5 -4.5 15.5 -13.5q-21 -81 -55 -229.5t-46 -199.5q-22 -102 -41 -181q-14 -55 -44 -55
q-79 0 -90 32l-2 -2l-163 436l-62 -252q-18 -69 -39 -156q-7 -29 -21.5 -39t-54.5 -10q-31 0 -45.5 10.5t-14.5 35.5q0 11 3 21l137 541q11 44 23.5 58.5t45.5 14.5q27 0 48 -6t22 -18v-3l161 -446q65 314 83 369q14 42 38 70t53 34q37 -7 48.5 -11.5zM282 645zM404 21z" />
    <glyph glyph-name="Ncaron" unicode="&#x147;" horiz-adv-x="693" 
d="M311 828q-10 13 -10 25q0 16 15.5 27.5t36.5 11.5q20 0 38 -21l55 -66q60 52 88.5 73t41.5 21q20 0 35.5 -9t15.5 -24q0 -11 -3.5 -20t-17.5 -20l-22 -18q-75 -62 -103 -83q-15 -12 -45 -12q-20 0 -35.5 9.5t-38.5 39.5zM666.5 656.5q11.5 -4.5 15.5 -13.5
q-21 -81 -55 -229.5t-46 -199.5q-22 -102 -41 -181q-14 -55 -44 -55q-79 0 -90 32l-2 -2l-163 436l-62 -252q-18 -69 -39 -156q-7 -29 -21.5 -39t-54.5 -10q-31 0 -45.5 10.5t-14.5 35.5q0 11 3 21l137 541q11 44 23.5 58.5t45.5 14.5q27 0 48 -6t22 -18v-3l161 -446
q65 314 83 369q14 42 38 70t53 34q37 -7 48.5 -11.5zM282 645zM404 21z" />
    <glyph glyph-name="Ncommaaccent" unicode="&#x145;" horiz-adv-x="693" 
d="M666.5 656.5q11.5 -4.5 15.5 -13.5q-21 -81 -55 -229.5t-46 -199.5q-22 -102 -41 -181q-14 -55 -44 -55q-79 0 -90 32l-2 -2l-163 436l-62 -252q-18 -69 -39 -156q-7 -29 -21.5 -39t-54.5 -10q-31 0 -45.5 10.5t-14.5 35.5q0 11 3 21l137 541q11 44 23.5 58.5t45.5 14.5
q27 0 48 -6t22 -18v-3l161 -446q65 314 83 369q14 42 38 70t53 34q37 -7 48.5 -11.5zM282 645zM404 21zM333.5 -58.5q16.5 -16.5 16.5 -31.5q0 -35 -26 -74.5t-75 -95.5q-28 -28 -56 -28t-28 19t8.5 34.5t25.5 40.5q18 23 26.5 40t8.5 36q0 7 -2 18t-2 19q0 18 12 28.5
t49 10.5q26 0 42.5 -16.5z" />
    <glyph glyph-name="uni1E44" unicode="&#x1e44;" horiz-adv-x="693" 
d="M392 730.5q-21 18.5 -21 41.5q0 34 28 59t62 25q25 0 45 -21.5t20 -46.5q0 -32 -27 -54t-63 -22q-23 0 -44 18.5zM666.5 656.5q11.5 -4.5 15.5 -13.5q-21 -81 -55 -229.5t-46 -199.5q-22 -102 -41 -181q-14 -55 -44 -55q-79 0 -90 32l-2 -2l-163 436l-62 -252
q-18 -69 -39 -156q-7 -29 -21.5 -39t-54.5 -10q-31 0 -45.5 10.5t-14.5 35.5q0 11 3 21l137 541q11 44 23.5 58.5t45.5 14.5q27 0 48 -6t22 -18v-3l161 -446q65 314 83 369q14 42 38 70t53 34q37 -7 48.5 -11.5zM282 645zM404 21z" />
    <glyph glyph-name="uni1E46" unicode="&#x1e46;" horiz-adv-x="693" 
d="M666.5 656.5q11.5 -4.5 15.5 -13.5q-21 -81 -55 -229.5t-46 -199.5q-22 -102 -41 -181q-14 -55 -44 -55q-79 0 -90 32l-2 -2l-163 436l-62 -252q-18 -69 -39 -156q-7 -29 -21.5 -39t-54.5 -10q-31 0 -45.5 10.5t-14.5 35.5q0 11 3 21l137 541q11 44 23.5 58.5t45.5 14.5
q27 0 48 -6t22 -18v-3l161 -446q65 314 83 369q14 42 38 70t53 34q37 -7 48.5 -11.5zM282 645zM404 21zM314 -92.5q20 -21.5 20 -46.5q0 -32 -27 -54t-63 -22q-23 0 -44 18.5t-21 41.5q0 34 28 59t62 25q25 0 45 -21.5z" />
    <glyph glyph-name="Eng" unicode="&#x14a;" horiz-adv-x="693" 
d="M408.5 -309.5q-55.5 -46.5 -144.5 -46.5q-73 0 -115.5 27.5t-59 65.5t-16.5 75q4 20 16 29t43 9q22 0 36 -2q1 -50 26.5 -79.5t64.5 -29.5q30 0 64 22t46 78l37 170l-165 435l-62 -252q-18 -69 -39 -156q-7 -29 -21.5 -39t-54.5 -10q-31 0 -45.5 10.5t-14.5 35.5
q0 11 3 21l137 541q11 44 23.5 58.5t45.5 14.5q27 0 48 -6t22 -18v-2q18 -51 55 -154l74 -206l32 -88q66 317 83 370q14 42 38 70t53 34q37 -7 48.5 -11.5t15.5 -13.5l-201 -834q-17 -72 -72.5 -118.5z" />
    <glyph glyph-name="uni01CB" unicode="&#x1cb;" horiz-adv-x="1018" 
d="M995.5 650q27.5 -23 27.5 -52t-28 -50t-65 -21q-36 0 -54.5 18.5t-18.5 48.5q0 31 19.5 55t54.5 24q37 0 64.5 -23zM496 -22q-79 0 -90 32l-2 -2l-163 436l-62 -252q-18 -69 -39 -156q-7 -29 -21.5 -39t-54.5 -10q-31 0 -45.5 10.5t-14.5 35.5q0 11 3 21l137 541
q11 44 23.5 58.5t45.5 14.5q27 0 48 -6t22 -18v-3l161 -446q65 314 83 369q14 42 38 70t53 34q37 -7 48.5 -11.5t15.5 -13.5q-21 -81 -55 -229.5t-46 -199.5q-22 -102 -41 -181q-14 -55 -44 -55zM282 645zM958.5 466.5q15.5 -20.5 18.5 -49.5q-66 -273 -106 -426
q-27 -105 -79 -158t-147 -53q-46 0 -78.5 20t-48 50.5t-15.5 63.5q0 25 11.5 40t47.5 15q13 0 18.5 -10t9.5 -31q6 -30 17 -46t42 -16q35 0 59.5 30t37.5 85l109 446l-27 30q-3 3 -3 7q0 10 22 16.5t61 6.5q35 0 50.5 -20.5zM404 21z" />
    <glyph glyph-name="uni1E48" unicode="&#x1e48;" horiz-adv-x="693" 
d="M666.5 656.5q11.5 -4.5 15.5 -13.5q-21 -81 -55 -229.5t-46 -199.5q-22 -102 -41 -181q-14 -55 -44 -55q-79 0 -90 32l-2 -2l-163 436l-62 -252q-18 -69 -39 -156q-7 -29 -21.5 -39t-54.5 -10q-31 0 -45.5 10.5t-14.5 35.5q0 11 3 21l137 541q11 44 23.5 58.5t45.5 14.5
q27 0 48 -6t22 -18v-3l161 -446q65 314 83 369q14 42 38 70t53 34q37 -7 48.5 -11.5zM282 645zM404 21zM438 -76q11 -6 12 -24v-7q-1 -25 -20 -38t-49 -15l-209 -11q-28 -4 -43 -4q-44 3 -47 40v8q1 21 13.5 31t38 14t79.5 6l189 8q25 -2 36 -8z" />
    <glyph glyph-name="Ntilde" unicode="&#xd1;" horiz-adv-x="693" 
d="M304 722.5q-5 10.5 -5 36.5q0 20 21 42t50.5 36.5t53.5 14.5q44 0 90 -35q19 -15 34 -21t32 -6q12 0 22 6.5t20 16t15 14.5q4 4 9 4q4 0 8 -5t5 -5q2 0 2 -9q0 -28 -19 -52.5t-44 -39.5t-40 -15q-23 0 -41.5 7.5t-44.5 24.5q-19 15 -33.5 21t-30.5 6q-33 0 -87 -59
q-12 7 -17 17.5zM666.5 656.5q11.5 -4.5 15.5 -13.5q-21 -81 -55 -229.5t-46 -199.5q-22 -102 -41 -181q-14 -55 -44 -55q-79 0 -90 32l-2 -2l-163 436l-62 -252q-18 -69 -39 -156q-7 -29 -21.5 -39t-54.5 -10q-31 0 -45.5 10.5t-14.5 35.5q0 11 3 21l137 541
q11 44 23.5 58.5t45.5 14.5q27 0 48 -6t22 -18v-3l161 -446q65 314 83 369q14 42 38 70t53 34q37 -7 48.5 -11.5zM282 645zM404 21z" />
    <glyph glyph-name="O" unicode="O" horiz-adv-x="648" 
d="M78 56q-59 77 -59 209q0 109 47 202t131 148t189 55q102 0 163.5 -69.5t61.5 -207.5q0 -98 -45.5 -194.5t-126.5 -158t-183 -61.5q-119 0 -178 77zM366 124q47 55 76.5 141t29.5 175q0 68 -22.5 98.5t-79.5 30.5q-63 0 -112 -55t-76 -137t-27 -159q0 -45 16.5 -79t43 -52
t55.5 -18q49 0 96 55z" />
    <glyph glyph-name="Oacute" unicode="&#xd3;" horiz-adv-x="648" 
d="M327.5 806q39.5 38 78 67.5t49.5 29.5q21 0 48 -19t27 -35q0 -13 -14 -26t-57 -43q-61 -43 -93 -59.5t-58 -16.5q-19 0 -28 7t-9 24q0 8 3 12q14 21 53.5 59zM78 56q-59 77 -59 209q0 109 47 202t131 148t189 55q102 0 163.5 -69.5t61.5 -207.5q0 -98 -45.5 -194.5
t-126.5 -158t-183 -61.5q-119 0 -178 77zM366 124q47 55 76.5 141t29.5 175q0 68 -22.5 98.5t-79.5 30.5q-63 0 -112 -55t-76 -137t-27 -159q0 -45 16.5 -79t43 -52t55.5 -18q49 0 96 55z" />
    <glyph glyph-name="Obreve" unicode="&#x14e;" horiz-adv-x="648" 
d="M349 731.5q-37 24.5 -37 69.5q0 55 53 55q33 0 34 -32q1 -20 11 -28t45 -8q32 0 50 6.5t28.5 19t23.5 37.5q7 6 16.5 10t17.5 4q35 0 44 -14q-10 -70 -63 -106t-125 -38q-61 0 -98 24.5zM78 56q-59 77 -59 209q0 109 47 202t131 148t189 55q102 0 163.5 -69.5
t61.5 -207.5q0 -98 -45.5 -194.5t-126.5 -158t-183 -61.5q-119 0 -178 77zM366 124q47 55 76.5 141t29.5 175q0 68 -22.5 98.5t-79.5 30.5q-63 0 -112 -55t-76 -137t-27 -159q0 -45 16.5 -79t43 -52t55.5 -18q49 0 96 55z" />
    <glyph glyph-name="uni01D1" unicode="&#x1d1;" horiz-adv-x="648" 
d="M391.5 722.5q-15.5 9.5 -38.5 39.5l-51 66q-10 13 -10 25q0 16 15.5 27.5t36.5 11.5q20 0 38 -21l55 -66q60 52 88.5 73t41.5 21q20 0 35.5 -9t15.5 -24q0 -11 -3.5 -20t-17.5 -20l-22 -18q-75 -62 -103 -83q-15 -12 -45 -12q-20 0 -35.5 9.5zM78 56q-59 77 -59 209
q0 109 47 202t131 148t189 55q102 0 163.5 -69.5t61.5 -207.5q0 -98 -45.5 -194.5t-126.5 -158t-183 -61.5q-119 0 -178 77zM366 124q47 55 76.5 141t29.5 175q0 68 -22.5 98.5t-79.5 30.5q-63 0 -112 -55t-76 -137t-27 -159q0 -45 16.5 -79t43 -52t55.5 -18q49 0 96 55z
" />
    <glyph glyph-name="Ocircumflex" unicode="&#xd4;" horiz-adv-x="648" 
d="M482.5 877.5q15.5 -9.5 38.5 -39.5l51 -66q10 -13 10 -25q0 -16 -15.5 -27.5t-36.5 -11.5q-20 0 -38 21l-55 66q-60 -52 -88.5 -73t-41.5 -21q-20 0 -35.5 9t-15.5 24q0 11 3.5 20t17.5 20l22 18q75 62 103 83q15 12 45 12q20 0 35.5 -9.5zM78 56q-59 77 -59 209
q0 109 47 202t131 148t189 55q102 0 163.5 -69.5t61.5 -207.5q0 -98 -45.5 -194.5t-126.5 -158t-183 -61.5q-119 0 -178 77zM366 124q47 55 76.5 141t29.5 175q0 68 -22.5 98.5t-79.5 30.5q-63 0 -112 -55t-76 -137t-27 -159q0 -45 16.5 -79t43 -52t55.5 -18q49 0 96 55z
" />
    <glyph glyph-name="uni1ED0" unicode="&#x1ed0;" horiz-adv-x="648" 
d="M615.5 934q30.5 38 41.5 38q16 0 45.5 -13.5t29.5 -23.5q0 -9 -10 -18.5t-40 -29.5l-34 -24q-24 -18 -36.5 -25t-25.5 -7q-14 0 -20 5t-6 17q0 4 2 8q23 35 53.5 73zM492.5 878.5q15.5 -9.5 38.5 -39.5l51 -66q10 -13 10 -25q0 -16 -15.5 -27.5t-36.5 -11.5q-20 0 -38 21
l-55 66q-60 -52 -88.5 -73t-41.5 -21q-20 0 -35.5 9t-15.5 24q0 11 3.5 20t17.5 20l22 18q75 62 103 83q15 12 45 12q20 0 35.5 -9.5zM78 56q-59 77 -59 209q0 109 47 202t131 148t189 55q102 0 163.5 -69.5t61.5 -207.5q0 -98 -45.5 -194.5t-126.5 -158t-183 -61.5
q-119 0 -178 77zM366 124q47 55 76.5 141t29.5 175q0 68 -22.5 98.5t-79.5 30.5q-63 0 -112 -55t-76 -137t-27 -159q0 -45 16.5 -79t43 -52t55.5 -18q49 0 96 55z" />
    <glyph glyph-name="uni1ED8" unicode="&#x1ed8;" horiz-adv-x="648" 
d="M492.5 878.5q15.5 -9.5 38.5 -39.5l51 -66q10 -13 10 -25q0 -16 -15.5 -27.5t-36.5 -11.5q-20 0 -38 21l-55 66q-60 -52 -88.5 -73t-41.5 -21q-20 0 -35.5 9t-15.5 24q0 11 3.5 20t17.5 20l22 18q75 62 103 83q15 12 45 12q20 0 35.5 -9.5zM78 56q-59 77 -59 209
q0 109 47 202t131 148t189 55q102 0 163.5 -69.5t61.5 -207.5q0 -98 -45.5 -194.5t-126.5 -158t-183 -61.5q-119 0 -178 77zM366 124q47 55 76.5 141t29.5 175q0 68 -22.5 98.5t-79.5 30.5q-63 0 -112 -55t-76 -137t-27 -159q0 -45 16.5 -79t43 -52t55.5 -18q49 0 96 55z
M147 -196.5q-21 18.5 -21 41.5q0 34 28 59t62 25q25 0 45 -21.5t20 -46.5q0 -32 -27 -54t-63 -22q-23 0 -44 18.5z" />
    <glyph glyph-name="uni1ED2" unicode="&#x1ed2;" horiz-adv-x="648" 
d="M309 853q0 -12 -6 -17t-20 -5q-13 0 -25.5 7t-36.5 25l-34 24q-30 20 -40 29.5t-10 18.5q0 10 29.5 23.5t45.5 13.5q11 0 41.5 -38t53.5 -73q2 -4 2 -8zM492.5 878.5q15.5 -9.5 38.5 -39.5l51 -66q10 -13 10 -25q0 -16 -15.5 -27.5t-36.5 -11.5q-20 0 -38 21l-55 66
q-60 -52 -88.5 -73t-41.5 -21q-20 0 -35.5 9t-15.5 24q0 11 3.5 20t17.5 20l22 18q75 62 103 83q15 12 45 12q20 0 35.5 -9.5zM78 56q-59 77 -59 209q0 109 47 202t131 148t189 55q102 0 163.5 -69.5t61.5 -207.5q0 -98 -45.5 -194.5t-126.5 -158t-183 -61.5q-119 0 -178 77
zM366 124q47 55 76.5 141t29.5 175q0 68 -22.5 98.5t-79.5 30.5q-63 0 -112 -55t-76 -137t-27 -159q0 -45 16.5 -79t43 -52t55.5 -18q49 0 96 55z" />
    <glyph glyph-name="uni1ED4" unicode="&#x1ed4;" horiz-adv-x="648" 
d="M606 828q-13 0 -20.5 4.5t-7.5 11.5q0 4 13 52q3 13 14 19.5t30 12.5q20 7 29.5 13.5t9.5 21.5q0 6 -6.5 11.5t-22.5 5.5q-21 0 -35 -8q-12 -6 -21 -6q-8 0 -14 8t-6 17q0 23 26 32t61 9t61 -15.5t26 -44.5q0 -52 -70 -80q-14 -5 -19.5 -12.5t-7.5 -16t-4 -13.5
q-11 -22 -36 -22zM492.5 878.5q15.5 -9.5 38.5 -39.5l51 -66q10 -13 10 -25q0 -16 -15.5 -27.5t-36.5 -11.5q-20 0 -38 21l-55 66q-60 -52 -88.5 -73t-41.5 -21q-20 0 -35.5 9t-15.5 24q0 11 3.5 20t17.5 20l22 18q75 62 103 83q15 12 45 12q20 0 35.5 -9.5zM78 56
q-59 77 -59 209q0 109 47 202t131 148t189 55q102 0 163.5 -69.5t61.5 -207.5q0 -98 -45.5 -194.5t-126.5 -158t-183 -61.5q-119 0 -178 77zM366 124q47 55 76.5 141t29.5 175q0 68 -22.5 98.5t-79.5 30.5q-63 0 -112 -55t-76 -137t-27 -159q0 -45 16.5 -79t43 -52t55.5 -18
q49 0 96 55z" />
    <glyph glyph-name="uni1ED6" unicode="&#x1ed6;" horiz-adv-x="648" 
d="M351 893q-10 5 -14 15t-4 32q0 16 18 33t44 28t48 11q39 0 79 -28q18 -12 30 -17t27 -5q11 0 20 5.5t17.5 13t13.5 11.5q5 3 8 3q4 0 7.5 -4t4.5 -4q2 0 2 -7q0 -23 -17 -43t-39.5 -32t-36.5 -12q-20 0 -34.5 5.5t-40.5 20.5q-17 12 -29.5 16.5t-26.5 4.5q-28 0 -77 -47z
M352 734.5q-37 24.5 -37 69.5q0 55 53 55q27 0 28 -36q1 -19 12.5 -27.5t47.5 -8.5q32 0 50.5 7.5t29.5 21t24 38.5q7 6 16.5 10t17.5 4q35 0 44 -14q-10 -70 -63 -106t-125 -38q-61 0 -98 24.5zM78 56q-59 77 -59 209q0 109 47 202t131 148t189 55q102 0 163.5 -69.5
t61.5 -207.5q0 -98 -45.5 -194.5t-126.5 -158t-183 -61.5q-119 0 -178 77zM366 124q47 55 76.5 141t29.5 175q0 68 -22.5 98.5t-79.5 30.5q-63 0 -112 -55t-76 -137t-27 -159q0 -45 16.5 -79t43 -52t55.5 -18q49 0 96 55z" />
    <glyph glyph-name="uni020C" unicode="&#x20c;" horiz-adv-x="648" 
d="M388 721.5q-5 -14.5 -15 -14.5l-4 1q-10 3 -20.5 13.5t-25.5 29.5q-24 27 -38 40.5t-32 19.5q-11 4 -17 9.5t-6 18.5q0 23 12.5 45t33.5 22q53 0 111 -132q6 -13 6 -26q0 -12 -5 -26.5zM563 721.5q-5 -14.5 -15 -14.5l-4 1q-10 3 -20.5 13.5t-25.5 29.5q-24 27 -38 40.5
t-32 19.5q-11 4 -17 9.5t-6 18.5q0 23 12.5 45t33.5 22q53 0 111 -132q6 -13 6 -26q0 -12 -5 -26.5zM78 56q-59 77 -59 209q0 109 47 202t131 148t189 55q102 0 163.5 -69.5t61.5 -207.5q0 -98 -45.5 -194.5t-126.5 -158t-183 -61.5q-119 0 -178 77zM366 124q47 55 76.5 141
t29.5 175q0 68 -22.5 98.5t-79.5 30.5q-63 0 -112 -55t-76 -137t-27 -159q0 -45 16.5 -79t43 -52t55.5 -18q49 0 96 55z" />
    <glyph glyph-name="Odieresis" unicode="&#xd6;" horiz-adv-x="648" 
d="M476 722q-23 20 -23 42q0 35 26 57.5t60 22.5q26 0 49 -20t23 -44q0 -32 -26.5 -55t-62.5 -23q-23 0 -46 20zM250 716.5q-21 18.5 -21 41.5q0 34 28 59t62 25q25 0 45 -21.5t20 -46.5q0 -32 -27 -54t-63 -22q-23 0 -44 18.5zM78 56q-59 77 -59 209q0 109 47 202t131 148
t189 55q102 0 163.5 -69.5t61.5 -207.5q0 -98 -45.5 -194.5t-126.5 -158t-183 -61.5q-119 0 -178 77zM366 124q47 55 76.5 141t29.5 175q0 68 -22.5 98.5t-79.5 30.5q-63 0 -112 -55t-76 -137t-27 -159q0 -45 16.5 -79t43 -52t55.5 -18q49 0 96 55z" />
    <glyph glyph-name="uni1ECC" unicode="&#x1ecc;" horiz-adv-x="648" 
d="M78 56q-59 77 -59 209q0 109 47 202t131 148t189 55q102 0 163.5 -69.5t61.5 -207.5q0 -98 -45.5 -194.5t-126.5 -158t-183 -61.5q-119 0 -178 77zM366 124q47 55 76.5 141t29.5 175q0 68 -22.5 98.5t-79.5 30.5q-63 0 -112 -55t-76 -137t-27 -159q0 -45 16.5 -79t43 -52
t55.5 -18q49 0 96 55zM147 -196.5q-21 18.5 -21 41.5q0 34 28 59t62 25q25 0 45 -21.5t20 -46.5q0 -32 -27 -54t-63 -22q-23 0 -44 18.5z" />
    <glyph glyph-name="Ograve" unicode="&#xd2;" horiz-adv-x="648" 
d="M515 739q0 -17 -9 -24t-28 -7q-26 0 -58 16.5t-93 59.5q-43 30 -57 43t-14 26q0 16 27 35t48 19q11 0 49.5 -29.5t78 -67.5t53.5 -59q3 -4 3 -12zM78 56q-59 77 -59 209q0 109 47 202t131 148t189 55q102 0 163.5 -69.5t61.5 -207.5q0 -98 -45.5 -194.5t-126.5 -158
t-183 -61.5q-119 0 -178 77zM366 124q47 55 76.5 141t29.5 175q0 68 -22.5 98.5t-79.5 30.5q-63 0 -112 -55t-76 -137t-27 -159q0 -45 16.5 -79t43 -52t55.5 -18q49 0 96 55z" />
    <glyph glyph-name="uni1ECE" unicode="&#x1ece;" horiz-adv-x="648" 
d="M404 696q-16 0 -25 5t-9 14q0 7 16 66q4 16 17 24t38 16t37 16.5t12 26.5q0 8 -8.5 15t-28.5 7q-21 0 -31.5 -4.5t-11.5 -5.5t-8.5 -4.5t-18.5 -3.5q-10 0 -17.5 10t-7.5 21q0 29 32.5 40t76.5 11q43 0 76 -19t33 -56q0 -38 -24 -60.5t-62 -37.5q-18 -7 -25 -17
t-10 -20.5t-5 -16.5q-15 -27 -46 -27zM78 56q-59 77 -59 209q0 109 47 202t131 148t189 55q102 0 163.5 -69.5t61.5 -207.5q0 -98 -45.5 -194.5t-126.5 -158t-183 -61.5q-119 0 -178 77zM366 124q47 55 76.5 141t29.5 175q0 68 -22.5 98.5t-79.5 30.5q-63 0 -112 -55
t-76 -137t-27 -159q0 -45 16.5 -79t43 -52t55.5 -18q49 0 96 55z" />
    <glyph glyph-name="Ohorn" unicode="&#x1a0;" horiz-adv-x="680" 
d="M78 56q-59 77 -59 209q0 109 47 202t131 148t189 55q85 0 143 -49t75 -146q36 8 51 27.5t15 60.5q0 9 -3.5 22.5t-3.5 19.5q0 17 11.5 33.5t29.5 16.5h24q42 0 42 -55q0 -45 -20 -84t-56.5 -63.5t-83.5 -26.5l1 -33q0 -98 -45.5 -194.5t-126.5 -158t-183 -61.5
q-119 0 -178 77zM366 124q47 55 76.5 141t29.5 175q0 68 -22.5 98.5t-79.5 30.5q-63 0 -112 -55t-76 -137t-27 -159q0 -45 16.5 -79t43 -52t55.5 -18q49 0 96 55z" />
    <glyph glyph-name="uni1EDA" unicode="&#x1eda;" horiz-adv-x="680" 
d="M393.5 810q39.5 38 78 67.5t49.5 29.5q21 0 48 -19t27 -35q0 -13 -14 -26t-57 -43q-61 -43 -93 -59.5t-58 -16.5q-19 0 -28 7t-9 24q0 8 3 12q14 21 53.5 59zM78 56q-59 77 -59 209q0 109 47 202t131 148t189 55q85 0 143 -49t75 -146q36 8 51 27.5t15 60.5
q0 9 -3.5 22.5t-3.5 19.5q0 17 11.5 33.5t29.5 16.5h24q42 0 42 -55q0 -45 -20 -84t-56.5 -63.5t-83.5 -26.5l1 -33q0 -98 -45.5 -194.5t-126.5 -158t-183 -61.5q-119 0 -178 77zM366 124q47 55 76.5 141t29.5 175q0 68 -22.5 98.5t-79.5 30.5q-63 0 -112 -55t-76 -137
t-27 -159q0 -45 16.5 -79t43 -52t55.5 -18q49 0 96 55z" />
    <glyph glyph-name="uni1EE2" unicode="&#x1ee2;" horiz-adv-x="680" 
d="M78 56q-59 77 -59 209q0 109 47 202t131 148t189 55q85 0 143 -49t75 -146q36 8 51 27.5t15 60.5q0 9 -3.5 22.5t-3.5 19.5q0 17 11.5 33.5t29.5 16.5h24q42 0 42 -55q0 -45 -20 -84t-56.5 -63.5t-83.5 -26.5l1 -33q0 -98 -45.5 -194.5t-126.5 -158t-183 -61.5
q-119 0 -178 77zM366 124q47 55 76.5 141t29.5 175q0 68 -22.5 98.5t-79.5 30.5q-63 0 -112 -55t-76 -137t-27 -159q0 -45 16.5 -79t43 -52t55.5 -18q49 0 96 55zM147 -196.5q-21 18.5 -21 41.5q0 34 28 59t62 25q25 0 45 -21.5t20 -46.5q0 -32 -27 -54t-63 -22
q-23 0 -44 18.5z" />
    <glyph glyph-name="uni1EDC" unicode="&#x1edc;" horiz-adv-x="680" 
d="M516 736q0 -17 -9 -24t-28 -7q-26 0 -58 16.5t-93 59.5q-43 30 -57 43t-14 26q0 16 27 35t48 19q11 0 49.5 -29.5t78 -67.5t53.5 -59q3 -4 3 -12zM78 56q-59 77 -59 209q0 109 47 202t131 148t189 55q85 0 143 -49t75 -146q36 8 51 27.5t15 60.5q0 9 -3.5 22.5t-3.5 19.5
q0 17 11.5 33.5t29.5 16.5h24q42 0 42 -55q0 -45 -20 -84t-56.5 -63.5t-83.5 -26.5l1 -33q0 -98 -45.5 -194.5t-126.5 -158t-183 -61.5q-119 0 -178 77zM366 124q47 55 76.5 141t29.5 175q0 68 -22.5 98.5t-79.5 30.5q-63 0 -112 -55t-76 -137t-27 -159q0 -45 16.5 -79
t43 -52t55.5 -18q49 0 96 55z" />
    <glyph glyph-name="uni1EDE" unicode="&#x1ede;" horiz-adv-x="680" 
d="M397 710q-16 0 -25 5t-9 14q0 7 16 66q4 16 17 24t38 16t37 16.5t12 26.5q0 8 -8.5 15t-28.5 7q-21 0 -31.5 -4.5t-11.5 -5.5t-8.5 -4.5t-18.5 -3.5q-10 0 -17.5 10t-7.5 21q0 29 32.5 40t76.5 11q43 0 76 -19t33 -56q0 -38 -24 -60.5t-62 -37.5q-18 -7 -25 -17
t-10 -20.5t-5 -16.5q-15 -27 -46 -27zM78 56q-59 77 -59 209q0 109 47 202t131 148t189 55q85 0 143 -49t75 -146q36 8 51 27.5t15 60.5q0 9 -3.5 22.5t-3.5 19.5q0 17 11.5 33.5t29.5 16.5h24q42 0 42 -55q0 -45 -20 -84t-56.5 -63.5t-83.5 -26.5l1 -33q0 -98 -45.5 -194.5
t-126.5 -158t-183 -61.5q-119 0 -178 77zM366 124q47 55 76.5 141t29.5 175q0 68 -22.5 98.5t-79.5 30.5q-63 0 -112 -55t-76 -137t-27 -159q0 -45 16.5 -79t43 -52t55.5 -18q49 0 96 55z" />
    <glyph glyph-name="uni1EE0" unicode="&#x1ee0;" horiz-adv-x="680" 
d="M275 712q-12 7 -17 17.5t-5 36.5q0 20 21 42t50.5 36.5t53.5 14.5q44 0 90 -35q19 -15 34 -21t32 -6q12 0 22 6.5t20 16t15 14.5q4 4 9 4q4 0 8 -5t5 -5q2 0 2 -9q0 -28 -19 -52.5t-44 -39.5t-40 -15q-23 0 -41.5 7.5t-44.5 24.5q-19 15 -33.5 21t-30.5 6q-33 0 -87 -59z
M78 56q-59 77 -59 209q0 109 47 202t131 148t189 55q85 0 143 -49t75 -146q36 8 51 27.5t15 60.5q0 9 -3.5 22.5t-3.5 19.5q0 17 11.5 33.5t29.5 16.5h24q42 0 42 -55q0 -45 -20 -84t-56.5 -63.5t-83.5 -26.5l1 -33q0 -98 -45.5 -194.5t-126.5 -158t-183 -61.5
q-119 0 -178 77zM366 124q47 55 76.5 141t29.5 175q0 68 -22.5 98.5t-79.5 30.5q-63 0 -112 -55t-76 -137t-27 -159q0 -45 16.5 -79t43 -52t55.5 -18q49 0 96 55z" />
    <glyph glyph-name="Ohungarumlaut" unicode="&#x150;" horiz-adv-x="648" 
d="M305 715q0 10 5.5 21.5t19.5 34.5q18 28 27 47.5t9 38.5q0 16 8.5 25t37.5 9q30 0 41.5 -11.5t11.5 -25.5q0 -30 -25 -65t-67 -71q-19 -17 -45 -17q-23 0 -23 14zM473 715q0 17 26 56q18 30 26.5 48.5t8.5 37.5q0 16 8.5 25t37.5 9q30 0 41.5 -11.5t11.5 -25.5
q0 -55 -92 -136q-20 -17 -46 -17q-22 0 -22 14zM78 56q-59 77 -59 209q0 109 47 202t131 148t189 55q102 0 163.5 -69.5t61.5 -207.5q0 -98 -45.5 -194.5t-126.5 -158t-183 -61.5q-119 0 -178 77zM366 124q47 55 76.5 141t29.5 175q0 68 -22.5 98.5t-79.5 30.5
q-63 0 -112 -55t-76 -137t-27 -159q0 -45 16.5 -79t43 -52t55.5 -18q49 0 96 55z" />
    <glyph glyph-name="uni020E" unicode="&#x20e;" horiz-adv-x="648" 
d="M553.5 834q41.5 -22 41.5 -65q0 -56 -49 -56q-41 0 -43 28q-2 34 -56 34q-87 0 -104 -56q-2 -8 -14.5 -13.5t-21.5 -5.5q-25 0 -38 5t-13 19q0 123 197 132q59 0 100.5 -22zM78 56q-59 77 -59 209q0 109 47 202t131 148t189 55q102 0 163.5 -69.5t61.5 -207.5
q0 -98 -45.5 -194.5t-126.5 -158t-183 -61.5q-119 0 -178 77zM366 124q47 55 76.5 141t29.5 175q0 68 -22.5 98.5t-79.5 30.5q-63 0 -112 -55t-76 -137t-27 -159q0 -45 16.5 -79t43 -52t55.5 -18q49 0 96 55z" />
    <glyph glyph-name="Omacron" unicode="&#x14c;" horiz-adv-x="648" 
d="M576 748q-19 -13 -49 -15l-209 -11q-28 -4 -43 -4q-44 3 -47 40v8q2 22 14.5 34t39.5 17.5t77 7.5l189 8q47 -3 48 -40v-7q-1 -25 -20 -38zM78 56q-59 77 -59 209q0 109 47 202t131 148t189 55q102 0 163.5 -69.5t61.5 -207.5q0 -98 -45.5 -194.5t-126.5 -158t-183 -61.5
q-119 0 -178 77zM366 124q47 55 76.5 141t29.5 175q0 68 -22.5 98.5t-79.5 30.5q-63 0 -112 -55t-76 -137t-27 -159q0 -45 16.5 -79t43 -52t55.5 -18q49 0 96 55z" />
    <glyph glyph-name="uni01EA" unicode="&#x1ea;" horiz-adv-x="648" 
d="M285 -65q-14 -24 -14 -51q0 -45 45 -45q22 0 48 6q14 -10 14 -20q0 -25 -33 -35t-67 -10q-48 0 -81.5 25t-33.5 79q0 23 19.5 48.5t53.5 47.5q-109 7 -163 83t-54 202q0 109 47 202t131 148t189 55q102 0 163.5 -69.5t61.5 -207.5q0 -86 -35 -172t-99.5 -149t-147.5 -84
q-30 -29 -44 -53zM171.5 139q16.5 -34 43 -52t55.5 -18q49 0 96 55t76.5 141t29.5 175q0 68 -22.5 98.5t-79.5 30.5q-63 0 -112 -55t-76 -137t-27 -159q0 -45 16.5 -79z" />
    <glyph glyph-name="Oslash" unicode="&#xd8;" horiz-adv-x="648" 
d="M37 -25.5q-10 10.5 -10 32.5q0 7 40 60q-48 72 -48 191q0 109 47 200t131 144.5t189 53.5q51 0 93 -18q27 32 47.5 45.5t41.5 13.5q13 0 17.5 -4t4.5 -12l-1 -24q0 -19 -11 -35l-27 -38q60 -73 60 -205q0 -98 -45 -190.5t-126.5 -151t-183.5 -58.5q-72 0 -123 28
q-35 -43 -60 -43q-26 0 -36 10.5zM156 181q66 86 166 225q85 119 103 143q-18 6 -55 6q-63 0 -112.5 -53t-76 -133.5t-26.5 -157.5q0 -21 1 -30zM369 120.5q50 51.5 82 134.5t32 171q0 24 -2 50q-10 -15 -52 -69l-231 -310q31 -28 72 -28q49 0 99 51.5z" />
    <glyph glyph-name="Oslashacute" unicode="&#x1fe;" horiz-adv-x="648" 
d="M427.5 815q39.5 38 78 67.5t49.5 29.5q21 0 48 -19t27 -35q0 -13 -14 -26t-57 -43q-61 -43 -93 -59.5t-58 -16.5q-19 0 -28 7t-9 24q0 8 3 12q14 21 53.5 59zM37 -25.5q-10 10.5 -10 32.5q0 7 40 60q-48 72 -48 191q0 109 47 200t131 144.5t189 53.5q51 0 93 -18
q27 32 47.5 45.5t41.5 13.5q13 0 17.5 -4t4.5 -12l-1 -24q0 -19 -11 -35l-27 -38q60 -73 60 -205q0 -98 -45 -190.5t-126.5 -151t-183.5 -58.5q-72 0 -123 28q-35 -43 -60 -43q-26 0 -36 10.5zM156 181q66 86 166 225q85 119 103 143q-18 6 -55 6q-63 0 -112.5 -53
t-76 -133.5t-26.5 -157.5q0 -21 1 -30zM369 120.5q50 51.5 82 134.5t32 171q0 24 -2 50q-10 -15 -52 -69l-231 -310q31 -28 72 -28q49 0 99 51.5z" />
    <glyph glyph-name="Otilde" unicode="&#xd5;" horiz-adv-x="648" 
d="M285 703q-12 7 -17 17.5t-5 36.5q0 20 21 42t50.5 36.5t53.5 14.5q44 0 90 -35q19 -15 34 -21t32 -6q12 0 22 6.5t20 16t15 14.5q4 4 9 4q4 0 8 -5t5 -5q2 0 2 -9q0 -28 -19 -52.5t-44 -39.5t-40 -15q-23 0 -41.5 7.5t-44.5 24.5q-19 15 -33.5 21t-30.5 6q-33 0 -87 -59z
M78 56q-59 77 -59 209q0 109 47 202t131 148t189 55q102 0 163.5 -69.5t61.5 -207.5q0 -98 -45.5 -194.5t-126.5 -158t-183 -61.5q-119 0 -178 77zM366 124q47 55 76.5 141t29.5 175q0 68 -22.5 98.5t-79.5 30.5q-63 0 -112 -55t-76 -137t-27 -159q0 -45 16.5 -79t43 -52
t55.5 -18q49 0 96 55z" />
    <glyph glyph-name="OE" unicode="&#x152;" horiz-adv-x="856" 
d="M691 291q-87 -10 -147 -20l-31 -125l-12 -45q112 22 254 35q39 -17 39 -46q0 -18 -18 -35t-41 -24l-62 -8q-127 -14 -204 -28q-10 -7 -41 -7q-22 0 -42 18q-64 -27 -130 -27q-119 0 -178 74t-59 205q0 109 47 200t131 144.5t189 53.5q25 0 60.5 -10.5t51.5 -22.5
q13 17 39 21q81 12 188.5 21.5t157.5 10.5q36 -19 36 -48q0 -18 -19.5 -33.5t-43.5 -21.5q-7 -1 -15.5 -1t-17.5 -1q-180 -14 -218 -17q-18 -71 -42 -178q64 10 106 16t94 10q39 -17 39 -46q0 -18 -18 -35t-41 -24zM318 80.5q30 11.5 47 27.5l98 390q-10 29 -32.5 43
t-60.5 14q-63 0 -112.5 -53t-76 -133.5t-26.5 -157.5q0 -45 16.5 -77.5t42.5 -48.5t56 -16q18 0 48 11.5z" />
    <glyph glyph-name="P" unicode="P" horiz-adv-x="607" 
d="M58.5 572.5q8.5 8.5 23.5 15.5q5 3 36.5 18t60.5 23q9 20 27.5 33t47.5 13q17 0 28 -6.5t15 -16.5q37 12 89 12q65 0 112.5 -27.5t72 -75.5t24.5 -108q0 -12 -3 -33q-41 -234 -350 -234q-28 0 -41 1l-13 -48q-21 -77 -21 -79q-8 -35 -24.5 -54t-53.5 -19
q-31 0 -45.5 10.5t-14.5 35.5q0 11 3 21l121 467q-52 -15 -79 -41q-11 12 -17.5 31.5t-6.5 38.5q0 14 8.5 22.5zM256 279q95 0 150.5 36t71.5 111q3 17 3 25q0 56 -31 83.5t-87 27.5q-30 0 -77 -14q-39 -155 -64 -268q12 -1 34 -1z" />
    <glyph glyph-name="Thorn" unicode="&#xde;" horiz-adv-x="587" 
d="M12.5 469.5q8.5 8.5 23.5 15.5q5 3 36.5 18t60.5 23l31 117q4 15 22 24t41 9t39.5 -9.5t16.5 -26.5l-21 -91q22 7 39 9.5t39 2.5q58 0 107 -26.5t77.5 -71.5t28.5 -97q0 -101 -57 -158.5t-136.5 -79.5t-158.5 -22q-38 0 -51 1l-12 -47q-7 -26 -13 -39.5t-20 -23.5
t-40 -10q-30 0 -43 10t-13 36q0 11 3 21l95 364q-52 -15 -79 -41q-11 12 -17.5 31.5t-6.5 38.5q0 14 8.5 22.5zM215 199q61 0 111 18t79.5 52t29.5 79q0 56 -31 83.5t-87 27.5q-32 0 -79 -14l-61 -245q12 -1 38 -1z" />
    <glyph glyph-name="Q" unicode="Q" horiz-adv-x="648" 
d="M78 53q-59 74 -59 205q0 109 47 200t131 144.5t189 53.5q102 0 163.5 -69.5t61.5 -207.5q0 -74 -26 -146t-74 -129q85 -80 85 -90q0 -26 -15.5 -41.5t-43.5 -15.5q-21 0 -106 75q-80 -53 -175 -53q-119 0 -178 74zM357 105q-31 36 -60.5 79t-29.5 55q0 27 10.5 37.5
t34.5 10.5q3 0 41 -36q15 -15 69 -65q26 46 40.5 101.5t14.5 115.5q0 70 -25.5 111t-81.5 41q-64 0 -114 -48t-78 -122.5t-28 -150.5q0 -46 17.5 -83.5t45.5 -59.5t57 -22q43 0 87 36z" />
    <glyph glyph-name="R" unicode="R" horiz-adv-x="607" 
d="M568 57q16 -20 16 -37q0 -11 -17 -17q-6 -2 -19.5 -7.5t-24.5 -7.5t-25 -2q-21 0 -32 5q-28 12 -73 56t-87 100.5t-62 105.5h-6q-28 0 -41 1q-30 -111 -50 -194q-8 -35 -24.5 -54t-53.5 -19q-31 0 -45.5 10.5t-14.5 35.5q0 11 3 21l121 467q-52 -15 -79 -41
q-11 12 -17.5 31.5t-6.5 38.5q0 14 8.5 22.5t23.5 15.5q5 3 36.5 18t60.5 23q9 20 27.5 33t47.5 13q17 0 28 -6.5t15 -16.5q37 12 89 12q64 0 111.5 -25.5t72.5 -65.5t25 -81q0 -91 -58.5 -145.5t-150.5 -77.5q21 -36 56 -81t66.5 -76.5t41.5 -31.5l10 -1q12 -2 28 -22z
M218 347q12 -1 34 -1q48 0 96 14.5t80.5 43.5t32.5 72q0 39 -32 62.5t-86 23.5q-30 0 -77 -14q-29 -116 -48 -201z" />
    <glyph glyph-name="Racute" unicode="&#x154;" horiz-adv-x="607" 
d="M314 720q-9 7 -9 24q0 8 3 12q14 21 53.5 59t78 67.5t49.5 29.5q21 0 48 -19t27 -35q0 -13 -14 -26t-57 -43q-61 -43 -93 -59.5t-58 -16.5q-19 0 -28 7zM568 57q16 -20 16 -37q0 -11 -17 -17q-6 -2 -19.5 -7.5t-24.5 -7.5t-25 -2q-21 0 -32 5q-28 12 -73 56t-87 100.5
t-62 105.5h-6q-28 0 -41 1q-30 -111 -50 -194q-8 -35 -24.5 -54t-53.5 -19q-31 0 -45.5 10.5t-14.5 35.5q0 11 3 21l121 467q-52 -15 -79 -41q-11 12 -17.5 31.5t-6.5 38.5q0 14 8.5 22.5t23.5 15.5q5 3 36.5 18t60.5 23q9 20 27.5 33t47.5 13q17 0 28 -6.5t15 -16.5
q37 12 89 12q64 0 111.5 -25.5t72.5 -65.5t25 -81q0 -91 -58.5 -145.5t-150.5 -77.5q21 -36 56 -81t66.5 -76.5t41.5 -31.5l10 -1q12 -2 28 -22zM218 347q12 -1 34 -1q48 0 96 14.5t80.5 43.5t32.5 72q0 39 -32 62.5t-86 23.5q-30 0 -77 -14q-29 -116 -48 -201z" />
    <glyph glyph-name="Rcaron" unicode="&#x158;" horiz-adv-x="607" 
d="M249 822q-10 13 -10 25q0 16 15.5 27.5t36.5 11.5q20 0 38 -21l55 -66q60 52 88.5 73t41.5 21q20 0 35.5 -9t15.5 -24q0 -11 -3.5 -20t-17.5 -20l-22 -18q-75 -62 -103 -83q-15 -12 -45 -12q-20 0 -35.5 9.5t-38.5 39.5zM568 57q16 -20 16 -37q0 -11 -17 -17
q-6 -2 -19.5 -7.5t-24.5 -7.5t-25 -2q-21 0 -32 5q-28 12 -73 56t-87 100.5t-62 105.5h-6q-28 0 -41 1q-30 -111 -50 -194q-8 -35 -24.5 -54t-53.5 -19q-31 0 -45.5 10.5t-14.5 35.5q0 11 3 21l121 467q-52 -15 -79 -41q-11 12 -17.5 31.5t-6.5 38.5q0 14 8.5 22.5
t23.5 15.5q5 3 36.5 18t60.5 23q9 20 27.5 33t47.5 13q17 0 28 -6.5t15 -16.5q37 12 89 12q64 0 111.5 -25.5t72.5 -65.5t25 -81q0 -91 -58.5 -145.5t-150.5 -77.5q21 -36 56 -81t66.5 -76.5t41.5 -31.5l10 -1q12 -2 28 -22zM218 347q12 -1 34 -1q48 0 96 14.5t80.5 43.5
t32.5 72q0 39 -32 62.5t-86 23.5q-30 0 -77 -14q-29 -116 -48 -201z" />
    <glyph glyph-name="Rcommaaccent" unicode="&#x156;" horiz-adv-x="607" 
d="M568 57q16 -20 16 -37q0 -11 -17 -17q-6 -2 -19.5 -7.5t-24.5 -7.5t-25 -2q-21 0 -32 5q-28 12 -73 56t-87 100.5t-62 105.5h-6q-28 0 -41 1q-30 -111 -50 -194q-8 -35 -24.5 -54t-53.5 -19q-31 0 -45.5 10.5t-14.5 35.5q0 11 3 21l121 467q-52 -15 -79 -41
q-11 12 -17.5 31.5t-6.5 38.5q0 14 8.5 22.5t23.5 15.5q5 3 36.5 18t60.5 23q9 20 27.5 33t47.5 13q17 0 28 -6.5t15 -16.5q37 12 89 12q64 0 111.5 -25.5t72.5 -65.5t25 -81q0 -91 -58.5 -145.5t-150.5 -77.5q21 -36 56 -81t66.5 -76.5t41.5 -31.5l10 -1q12 -2 28 -22z
M218 347q12 -1 34 -1q48 0 96 14.5t80.5 43.5t32.5 72q0 39 -32 62.5t-86 23.5q-30 0 -77 -14q-29 -116 -48 -201zM318.5 -72.5q16.5 -16.5 16.5 -31.5q0 -35 -26 -74.5t-75 -95.5q-28 -28 -56 -28t-28 19t8.5 34.5t25.5 40.5q18 23 26.5 40t8.5 36q0 7 -2 18t-2 19
q0 18 12 28.5t49 10.5q26 0 42.5 -16.5z" />
    <glyph glyph-name="uni0210" unicode="&#x210;" horiz-adv-x="607" 
d="M140 820.5q-6 5.5 -6 18.5q0 23 12.5 45t33.5 22q53 0 111 -132q6 -13 6 -26q0 -12 -5 -26.5t-15 -14.5l-4 1q-10 3 -20.5 13.5t-25.5 29.5q-24 27 -38 40.5t-32 19.5q-11 4 -17 9.5zM315 820.5q-6 5.5 -6 18.5q0 23 12.5 45t33.5 22q53 0 111 -132q6 -13 6 -26
q0 -12 -5 -26.5t-15 -14.5l-4 1q-10 3 -20.5 13.5t-25.5 29.5q-24 27 -38 40.5t-32 19.5q-11 4 -17 9.5zM568 57q16 -20 16 -37q0 -11 -17 -17q-6 -2 -19.5 -7.5t-24.5 -7.5t-25 -2q-21 0 -32 5q-28 12 -73 56t-87 100.5t-62 105.5h-6q-28 0 -41 1q-30 -111 -50 -194
q-8 -35 -24.5 -54t-53.5 -19q-31 0 -45.5 10.5t-14.5 35.5q0 11 3 21l121 467q-52 -15 -79 -41q-11 12 -17.5 31.5t-6.5 38.5q0 14 8.5 22.5t23.5 15.5q5 3 36.5 18t60.5 23q9 20 27.5 33t47.5 13q17 0 28 -6.5t15 -16.5q37 12 89 12q64 0 111.5 -25.5t72.5 -65.5t25 -81
q0 -91 -58.5 -145.5t-150.5 -77.5q21 -36 56 -81t66.5 -76.5t41.5 -31.5l10 -1q12 -2 28 -22zM218 347q12 -1 34 -1q48 0 96 14.5t80.5 43.5t32.5 72q0 39 -32 62.5t-86 23.5q-30 0 -77 -14q-29 -116 -48 -201z" />
    <glyph glyph-name="uni1E5A" unicode="&#x1e5a;" horiz-adv-x="607" 
d="M568 57q16 -20 16 -37q0 -11 -17 -17q-6 -2 -19.5 -7.5t-24.5 -7.5t-25 -2q-21 0 -32 5q-28 12 -73 56t-87 100.5t-62 105.5h-6q-28 0 -41 1q-30 -111 -50 -194q-8 -35 -24.5 -54t-53.5 -19q-31 0 -45.5 10.5t-14.5 35.5q0 11 3 21l121 467q-52 -15 -79 -41
q-11 12 -17.5 31.5t-6.5 38.5q0 14 8.5 22.5t23.5 15.5q5 3 36.5 18t60.5 23q9 20 27.5 33t47.5 13q17 0 28 -6.5t15 -16.5q37 12 89 12q64 0 111.5 -25.5t72.5 -65.5t25 -81q0 -91 -58.5 -145.5t-150.5 -77.5q21 -36 56 -81t66.5 -76.5t41.5 -31.5l10 -1q12 -2 28 -22z
M218 347q12 -1 34 -1q48 0 96 14.5t80.5 43.5t32.5 72q0 39 -32 62.5t-86 23.5q-30 0 -77 -14q-29 -116 -48 -201zM321 -92.5q20 -21.5 20 -46.5q0 -32 -27 -54t-63 -22q-23 0 -44 18.5t-21 41.5q0 34 28 59t62 25q25 0 45 -21.5z" />
    <glyph glyph-name="uni1E5C" unicode="&#x1e5c;" horiz-adv-x="607" 
d="M184 763v8q2 22 14.5 34t39.5 17.5t77 7.5l189 8q47 -3 48 -40v-7q-1 -25 -20 -38t-49 -15l-209 -11q-28 -4 -43 -4q-44 3 -47 40zM568 57q16 -20 16 -37q0 -11 -17 -17q-6 -2 -19.5 -7.5t-24.5 -7.5t-25 -2q-21 0 -32 5q-28 12 -73 56t-87 100.5t-62 105.5h-6
q-28 0 -41 1q-30 -111 -50 -194q-8 -35 -24.5 -54t-53.5 -19q-31 0 -45.5 10.5t-14.5 35.5q0 11 3 21l121 467q-52 -15 -79 -41q-11 12 -17.5 31.5t-6.5 38.5q0 14 8.5 22.5t23.5 15.5q5 3 36.5 18t60.5 23q9 20 27.5 33t47.5 13q17 0 28 -6.5t15 -16.5q37 12 89 12
q64 0 111.5 -25.5t72.5 -65.5t25 -81q0 -91 -58.5 -145.5t-150.5 -77.5q21 -36 56 -81t66.5 -76.5t41.5 -31.5l10 -1q12 -2 28 -22zM218 347q12 -1 34 -1q48 0 96 14.5t80.5 43.5t32.5 72q0 39 -32 62.5t-86 23.5q-30 0 -77 -14q-29 -116 -48 -201zM321 -92.5
q20 -21.5 20 -46.5q0 -32 -27 -54t-63 -22q-23 0 -44 18.5t-21 41.5q0 34 28 59t62 25q25 0 45 -21.5z" />
    <glyph glyph-name="uni0212" unicode="&#x212;" horiz-adv-x="607" 
d="M214 705q-13 5 -13 19q0 123 197 132q59 0 100.5 -22t41.5 -65q0 -56 -49 -56q-41 0 -43 28q-2 34 -56 34q-87 0 -104 -56q-2 -8 -14.5 -13.5t-21.5 -5.5q-25 0 -38 5zM568 57q16 -20 16 -37q0 -11 -17 -17q-6 -2 -19.5 -7.5t-24.5 -7.5t-25 -2q-21 0 -32 5
q-28 12 -73 56t-87 100.5t-62 105.5h-6q-28 0 -41 1q-30 -111 -50 -194q-8 -35 -24.5 -54t-53.5 -19q-31 0 -45.5 10.5t-14.5 35.5q0 11 3 21l121 467q-52 -15 -79 -41q-11 12 -17.5 31.5t-6.5 38.5q0 14 8.5 22.5t23.5 15.5q5 3 36.5 18t60.5 23q9 20 27.5 33t47.5 13
q17 0 28 -6.5t15 -16.5q37 12 89 12q64 0 111.5 -25.5t72.5 -65.5t25 -81q0 -91 -58.5 -145.5t-150.5 -77.5q21 -36 56 -81t66.5 -76.5t41.5 -31.5l10 -1q12 -2 28 -22zM218 347q12 -1 34 -1q48 0 96 14.5t80.5 43.5t32.5 72q0 39 -32 62.5t-86 23.5q-30 0 -77 -14
q-29 -116 -48 -201z" />
    <glyph glyph-name="uni1E5E" unicode="&#x1e5e;" horiz-adv-x="607" 
d="M568 57q16 -20 16 -37q0 -11 -17 -17q-6 -2 -19.5 -7.5t-24.5 -7.5t-25 -2q-21 0 -32 5q-28 12 -73 56t-87 100.5t-62 105.5h-6q-28 0 -41 1q-30 -111 -50 -194q-8 -35 -24.5 -54t-53.5 -19q-31 0 -45.5 10.5t-14.5 35.5q0 11 3 21l121 467q-52 -15 -79 -41
q-11 12 -17.5 31.5t-6.5 38.5q0 14 8.5 22.5t23.5 15.5q5 3 36.5 18t60.5 23q9 20 27.5 33t47.5 13q17 0 28 -6.5t15 -16.5q37 12 89 12q64 0 111.5 -25.5t72.5 -65.5t25 -81q0 -91 -58.5 -145.5t-150.5 -77.5q21 -36 56 -81t66.5 -76.5t41.5 -31.5l10 -1q12 -2 28 -22z
M218 347q12 -1 34 -1q48 0 96 14.5t80.5 43.5t32.5 72q0 39 -32 62.5t-86 23.5q-30 0 -77 -14q-29 -116 -48 -201zM410 -76q11 -6 12 -24v-7q-1 -25 -20 -38t-49 -15l-209 -11q-28 -4 -43 -4q-44 3 -47 40v8q1 21 13.5 31t38 14t79.5 6l189 8q25 -2 36 -8z" />
    <glyph glyph-name="S" unicode="S" horiz-adv-x="628" 
d="M448.5 555.5q-33.5 12.5 -87.5 12.5q-59 0 -92 -33t-33 -83q0 -31 22.5 -47.5t69.5 -36.5l36 -15l30 -14q54 -24 85.5 -43.5t53.5 -53.5t22 -87q0 -57 -37.5 -98.5t-104.5 -63t-156 -21.5q-66 0 -123.5 20.5t-91 51.5t-33.5 61q0 29 25 47.5t71 25.5q5 -29 34 -52
t67.5 -36.5t67.5 -13.5q53 0 94.5 21t41.5 58q0 31 -29.5 51.5t-88.5 44.5l-53 24q-65 32 -103 72t-38 106q0 73 41 118.5t99.5 65.5t114.5 20q89 0 146.5 -23t83.5 -58t26 -72q0 -21 -10.5 -51t-31 -52t-49.5 -22q-50 0 -50 52q2 16 9 52.5t10 43.5q-5 16 -38.5 28.5z" />
    <glyph glyph-name="Sacute" unicode="&#x15a;" horiz-adv-x="628" 
d="M460.5 813q39.5 38 78 67.5t49.5 29.5q21 0 48 -19t27 -35q0 -13 -14 -26t-57 -43q-61 -43 -93 -59.5t-58 -16.5q-19 0 -28 7t-9 24q0 8 3 12q14 21 53.5 59zM448.5 555.5q-33.5 12.5 -87.5 12.5q-59 0 -92 -33t-33 -83q0 -31 22.5 -47.5t69.5 -36.5l36 -15l30 -14
q54 -24 85.5 -43.5t53.5 -53.5t22 -87q0 -57 -37.5 -98.5t-104.5 -63t-156 -21.5q-66 0 -123.5 20.5t-91 51.5t-33.5 61q0 29 25 47.5t71 25.5q5 -29 34 -52t67.5 -36.5t67.5 -13.5q53 0 94.5 21t41.5 58q0 31 -29.5 51.5t-88.5 44.5l-53 24q-65 32 -103 72t-38 106
q0 73 41 118.5t99.5 65.5t114.5 20q89 0 146.5 -23t83.5 -58t26 -72q0 -21 -10.5 -51t-31 -52t-49.5 -22q-50 0 -50 52q2 16 9 52.5t10 43.5q-5 16 -38.5 28.5z" />
    <glyph glyph-name="Scaron" unicode="&#x160;" horiz-adv-x="628" 
d="M402.5 713.5q-15.5 9.5 -38.5 39.5l-51 66q-10 13 -10 25q0 16 15.5 27.5t36.5 11.5q20 0 38 -21l55 -66q60 52 88.5 73t41.5 21q20 0 35.5 -9t15.5 -24q0 -11 -3.5 -20t-17.5 -20l-22 -18q-75 -62 -103 -83q-15 -12 -45 -12q-20 0 -35.5 9.5zM448.5 555.5
q-33.5 12.5 -87.5 12.5q-59 0 -92 -33t-33 -83q0 -31 22.5 -47.5t69.5 -36.5l36 -15l30 -14q54 -24 85.5 -43.5t53.5 -53.5t22 -87q0 -57 -37.5 -98.5t-104.5 -63t-156 -21.5q-66 0 -123.5 20.5t-91 51.5t-33.5 61q0 29 25 47.5t71 25.5q5 -29 34 -52t67.5 -36.5t67.5 -13.5
q53 0 94.5 21t41.5 58q0 31 -29.5 51.5t-88.5 44.5l-53 24q-65 32 -103 72t-38 106q0 73 41 118.5t99.5 65.5t114.5 20q89 0 146.5 -23t83.5 -58t26 -72q0 -21 -10.5 -51t-31 -52t-49.5 -22q-50 0 -50 52q2 16 9 52.5t10 43.5q-5 16 -38.5 28.5z" />
    <glyph glyph-name="Scedilla" unicode="&#x15e;" horiz-adv-x="628" 
d="M468 431q2 16 9 52.5t10 43.5q-5 16 -38.5 28.5t-87.5 12.5q-59 0 -92 -33t-33 -83q0 -31 22.5 -47.5t69.5 -36.5l36 -15l30 -14q54 -24 85.5 -43.5t53.5 -53.5t22 -87q0 -80 -71 -127.5t-191 -54.5q-23 -35 -35 -57q18 3 34 3q38 0 70 -22.5t32 -52.5q0 -52 -47 -81
t-127 -29q-42 0 -80 22t-38 52q0 4 12.5 8.5t27.5 4.5t25 -3.5t23 -9.5q12 -6 19.5 -9t18.5 -3q33 0 51 11t18 31q0 14 -11 21t-28 7q-6 0 -13.5 -2t-10.5 -3q-13 -5 -25 -5q-28 0 -43 3.5t-15 9.5q0 29 56 106q-55 7 -100.5 28t-71.5 48.5t-26 53.5q0 29 25 47.5t71 25.5
q5 -29 34 -52t67.5 -36.5t67.5 -13.5q53 0 94.5 21t41.5 58q0 31 -29.5 51.5t-88.5 44.5l-53 24q-65 32 -103 72t-38 106q0 73 41 118.5t99.5 65.5t114.5 20q89 0 146.5 -23t83.5 -58t26 -72q0 -21 -10.5 -51t-31 -52t-49.5 -22q-50 0 -50 52z" />
    <glyph glyph-name="Scircumflex" unicode="&#x15c;" horiz-adv-x="628" 
d="M520.5 881.5q15.5 -9.5 38.5 -39.5l51 -66q10 -13 10 -25q0 -16 -15.5 -27.5t-36.5 -11.5q-20 0 -38 21l-55 66q-60 -52 -88.5 -73t-41.5 -21q-20 0 -35.5 9t-15.5 24q0 11 3.5 20t17.5 20l22 18q75 62 103 83q15 12 45 12q20 0 35.5 -9.5zM448.5 555.5
q-33.5 12.5 -87.5 12.5q-59 0 -92 -33t-33 -83q0 -31 22.5 -47.5t69.5 -36.5l36 -15l30 -14q54 -24 85.5 -43.5t53.5 -53.5t22 -87q0 -57 -37.5 -98.5t-104.5 -63t-156 -21.5q-66 0 -123.5 20.5t-91 51.5t-33.5 61q0 29 25 47.5t71 25.5q5 -29 34 -52t67.5 -36.5t67.5 -13.5
q53 0 94.5 21t41.5 58q0 31 -29.5 51.5t-88.5 44.5l-53 24q-65 32 -103 72t-38 106q0 73 41 118.5t99.5 65.5t114.5 20q89 0 146.5 -23t83.5 -58t26 -72q0 -21 -10.5 -51t-31 -52t-49.5 -22q-50 0 -50 52q2 16 9 52.5t10 43.5q-5 16 -38.5 28.5z" />
    <glyph glyph-name="Scommaaccent" unicode="&#x218;" horiz-adv-x="628" 
d="M448.5 555.5q-33.5 12.5 -87.5 12.5q-59 0 -92 -33t-33 -83q0 -31 22.5 -47.5t69.5 -36.5l36 -15l30 -14q54 -24 85.5 -43.5t53.5 -53.5t22 -87q0 -57 -37.5 -98.5t-104.5 -63t-156 -21.5q-66 0 -123.5 20.5t-91 51.5t-33.5 61q0 29 25 47.5t71 25.5q5 -29 34 -52
t67.5 -36.5t67.5 -13.5q53 0 94.5 21t41.5 58q0 31 -29.5 51.5t-88.5 44.5l-53 24q-65 32 -103 72t-38 106q0 73 41 118.5t99.5 65.5t114.5 20q89 0 146.5 -23t83.5 -58t26 -72q0 -21 -10.5 -51t-31 -52t-49.5 -22q-50 0 -50 52q2 16 9 52.5t10 43.5q-5 16 -38.5 28.5z
M156 -241q0 16 6.5 28.5t22.5 34.5q15 21 22.5 34t7.5 30q0 7 -2 16.5t-2 16.5q0 15 10.5 23.5t42.5 8.5q21 0 35 -14t14 -27q0 -30 -23 -64.5t-64 -79.5q-19 -23 -47 -23q-23 0 -23 16z" />
    <glyph glyph-name="uni1E60" unicode="&#x1e60;" horiz-adv-x="628" 
d="M379 730.5q-21 18.5 -21 41.5q0 34 28 59t62 25q25 0 45 -21.5t20 -46.5q0 -32 -27 -54t-63 -22q-23 0 -44 18.5zM448.5 555.5q-33.5 12.5 -87.5 12.5q-59 0 -92 -33t-33 -83q0 -31 22.5 -47.5t69.5 -36.5l36 -15l30 -14q54 -24 85.5 -43.5t53.5 -53.5t22 -87
q0 -57 -37.5 -98.5t-104.5 -63t-156 -21.5q-66 0 -123.5 20.5t-91 51.5t-33.5 61q0 29 25 47.5t71 25.5q5 -29 34 -52t67.5 -36.5t67.5 -13.5q53 0 94.5 21t41.5 58q0 31 -29.5 51.5t-88.5 44.5l-53 24q-65 32 -103 72t-38 106q0 73 41 118.5t99.5 65.5t114.5 20
q89 0 146.5 -23t83.5 -58t26 -72q0 -21 -10.5 -51t-31 -52t-49.5 -22q-50 0 -50 52q2 16 9 52.5t10 43.5q-5 16 -38.5 28.5z" />
    <glyph glyph-name="uni1E62" unicode="&#x1e62;" horiz-adv-x="628" 
d="M448.5 555.5q-33.5 12.5 -87.5 12.5q-59 0 -92 -33t-33 -83q0 -31 22.5 -47.5t69.5 -36.5l36 -15l30 -14q54 -24 85.5 -43.5t53.5 -53.5t22 -87q0 -57 -37.5 -98.5t-104.5 -63t-156 -21.5q-66 0 -123.5 20.5t-91 51.5t-33.5 61q0 29 25 47.5t71 25.5q5 -29 34 -52
t67.5 -36.5t67.5 -13.5q53 0 94.5 21t41.5 58q0 31 -29.5 51.5t-88.5 44.5l-53 24q-65 32 -103 72t-38 106q0 73 41 118.5t99.5 65.5t114.5 20q89 0 146.5 -23t83.5 -58t26 -72q0 -21 -10.5 -51t-31 -52t-49.5 -22q-50 0 -50 52q2 16 9 52.5t10 43.5q-5 16 -38.5 28.5z
M151 -196.5q-21 18.5 -21 41.5q0 34 28 59t62 25q25 0 45 -21.5t20 -46.5q0 -32 -27 -54t-63 -22q-23 0 -44 18.5z" />
    <glyph glyph-name="uni1E9E" unicode="&#x1e9e;" horiz-adv-x="690" 
d="M507.5 554q-25.5 22 -89.5 22q-49 0 -83 -22t-41 -49l-135 -539q-8 -16 -25.5 -28t-37.5 -12q-18 0 -36.5 13.5t-18.5 35.5v6l128 504q24 96 86.5 140t164.5 44q116 0 166 -45t50 -111q0 -47 -33.5 -77t-90.5 -60q-31 -18 -44.5 -27.5t-13.5 -19.5q0 -20 18 -32t57 -27
q42 -17 68 -32t45.5 -43.5t19.5 -72.5q0 -72 -59.5 -110.5t-159.5 -38.5q-49 0 -91 15t-66.5 38.5t-26.5 46.5q0 24 21 39.5t59 20.5q1 -20 21 -37.5t47.5 -28t47.5 -10.5q34 0 62 18.5t28 43.5q0 46 -89 73q-56 17 -81.5 53t-25.5 79q0 32 26.5 55.5t79.5 55.5
q39 22 58.5 37.5t19.5 33.5q0 26 -25.5 48z" />
    <glyph glyph-name="uni018F" unicode="&#x18f;" horiz-adv-x="631" 
d="M537.5 223q-56.5 -108 -152 -169.5t-207.5 -61.5q-67 0 -113 45.5t-46 133.5q0 64 57 108t133 69.5t189 52.5l60 15q5 32 5 54q0 41 -24.5 63t-89.5 22q-17 0 -44.5 -10t-51.5 -25.5t-31 -32.5q-13 -28 -33 -58t-42 -30q-49 0 -66.5 22.5t-18.5 48.5q14 46 56.5 91.5
t107 75.5t141.5 30q118 0 172.5 -55t54.5 -147q0 -134 -56.5 -242zM230.5 241.5q-91.5 -35.5 -91.5 -71.5q0 -43 19 -58t51 -15q36 0 81.5 33t84.5 80.5t55 88.5q-108 -22 -199.5 -57.5z" />
    <glyph glyph-name="T" unicode="T" horiz-adv-x="556" 
d="M247.5 6q-16.5 -19 -53.5 -19q-31 0 -45.5 10.5t-14.5 35.5q0 11 3 21l122 484q-1 0 -65 -7q-77 -6 -96 -10q-20 7 -30.5 21.5t-10.5 34.5q0 16 11.5 30.5t27.5 21.5q50 10 140 17t231 15q72 3 97 6q16 -7 27.5 -21.5t11.5 -30.5q0 -18 -18 -35t-41 -24l-175 -9
q11 -4 11 -27q0 -12 -2 -18q-17 -76 -46.5 -197t-39.5 -164q-6 -25 -11 -45l-9 -36q-8 -35 -24.5 -54z" />
    <glyph glyph-name="Tbar" unicode="&#x166;" horiz-adv-x="556" 
d="M272 60q-8 -35 -24.5 -54t-53.5 -19q-31 0 -45.5 10.5t-14.5 35.5q0 11 3 21l50 200q-49 -6 -73 -11q-20 7 -30.5 21.5t-10.5 34.5q0 29 39 46q62 12 103 17l43 170q-14 -2 -30.5 -3.5t-31.5 -3.5q-88 -9 -98 -11q-20 7 -30.5 21.5t-10.5 34.5q0 29 39 46
q82 17 250.5 31.5t188.5 16.5q8 1 15 1t14 1q39 -17 39 -46q0 -18 -18 -35t-41 -24l-155 -12q-11 -48 -41 -175q16 1 28 2t22 2q63 5 66 5q39 -17 39 -46q0 -18 -18 -35t-41 -24l-122 -12z" />
    <glyph glyph-name="Tcaron" unicode="&#x164;" horiz-adv-x="556" 
d="M325.5 715.5q-15.5 9.5 -38.5 39.5l-51 66q-10 13 -10 25q0 16 15.5 27.5t36.5 11.5q20 0 38 -21l55 -66q60 52 88.5 73t41.5 21q20 0 35.5 -9t15.5 -24q0 -11 -3.5 -20t-17.5 -20l-22 -18q-75 -62 -103 -83q-15 -12 -45 -12q-20 0 -35.5 9.5zM247.5 6
q-16.5 -19 -53.5 -19q-31 0 -45.5 10.5t-14.5 35.5q0 11 3 21l122 484q-1 0 -65 -7q-77 -6 -96 -10q-20 7 -30.5 21.5t-10.5 34.5q0 16 11.5 30.5t27.5 21.5q50 10 140 17t231 15q72 3 97 6q16 -7 27.5 -21.5t11.5 -30.5q0 -18 -18 -35t-41 -24l-175 -9q11 -4 11 -27
q0 -12 -2 -18q-17 -76 -46.5 -197t-39.5 -164q-6 -25 -11 -45l-9 -36q-8 -35 -24.5 -54z" />
    <glyph glyph-name="uni0162" unicode="&#x162;" horiz-adv-x="556" 
d="M591.5 645.5q11.5 -14.5 11.5 -30.5q0 -18 -18 -35t-41 -24l-175 -9q11 -4 11 -27q0 -12 -2 -18q-17 -76 -46.5 -197t-39.5 -164q-6 -25 -11 -45l-9 -36q-6 -25 -15 -41t-26 -25q-22 -30 -39 -62q18 3 34 3q38 0 70 -22.5t32 -52.5q0 -52 -47 -81t-127 -29q-42 0 -80 22
t-38 52q0 4 12.5 8.5t27.5 4.5t25 -3.5t23 -9.5q12 -6 19.5 -9t18.5 -3q33 0 51 11t18 31q0 14 -11 21t-28 7q-6 0 -13.5 -2t-10.5 -3q-13 -5 -25 -5q-28 0 -43 3.5t-15 9.5q0 31 62 114q-13 10 -13 34q0 11 3 21l122 484q-1 0 -65 -7q-77 -6 -96 -10q-20 7 -30.5 21.5
t-10.5 34.5q0 16 11.5 30.5t27.5 21.5q50 10 140 17t231 15q72 3 97 6q16 -7 27.5 -21.5z" />
    <glyph glyph-name="uni021A" unicode="&#x21a;" horiz-adv-x="556" 
d="M247.5 6q-16.5 -19 -53.5 -19q-31 0 -45.5 10.5t-14.5 35.5q0 11 3 21l122 484q-1 0 -65 -7q-77 -6 -96 -10q-20 7 -30.5 21.5t-10.5 34.5q0 16 11.5 30.5t27.5 21.5q50 10 140 17t231 15q72 3 97 6q16 -7 27.5 -21.5t11.5 -30.5q0 -18 -18 -35t-41 -24l-175 -9
q11 -4 11 -27q0 -12 -2 -18q-17 -76 -46.5 -197t-39.5 -164q-6 -25 -11 -45l-9 -36q-8 -35 -24.5 -54zM41 -283q0 19 8.5 34.5t25.5 40.5q18 23 26.5 40t8.5 36q0 7 -2 18t-2 19q0 18 12 28.5t49 10.5q26 0 42.5 -16.5t16.5 -31.5q0 -35 -26 -74.5t-75 -95.5
q-28 -28 -56 -28t-28 19z" />
    <glyph glyph-name="uni1E6C" unicode="&#x1e6c;" horiz-adv-x="556" 
d="M247.5 6q-16.5 -19 -53.5 -19q-31 0 -45.5 10.5t-14.5 35.5q0 11 3 21l122 484q-1 0 -65 -7q-77 -6 -96 -10q-20 7 -30.5 21.5t-10.5 34.5q0 16 11.5 30.5t27.5 21.5q50 10 140 17t231 15q72 3 97 6q16 -7 27.5 -21.5t11.5 -30.5q0 -18 -18 -35t-41 -24l-175 -9
q11 -4 11 -27q0 -12 -2 -18q-17 -76 -46.5 -197t-39.5 -164q-6 -25 -11 -45l-9 -36q-8 -35 -24.5 -54zM99 -196.5q-21 18.5 -21 41.5q0 34 28 59t62 25q25 0 45 -21.5t20 -46.5q0 -32 -27 -54t-63 -22q-23 0 -44 18.5z" />
    <glyph glyph-name="uni1E6E" unicode="&#x1e6e;" horiz-adv-x="556" 
d="M247.5 6q-16.5 -19 -53.5 -19q-31 0 -45.5 10.5t-14.5 35.5q0 11 3 21l122 484q-1 0 -65 -7q-77 -6 -96 -10q-20 7 -30.5 21.5t-10.5 34.5q0 16 11.5 30.5t27.5 21.5q50 10 140 17t231 15q72 3 97 6q16 -7 27.5 -21.5t11.5 -30.5q0 -18 -18 -35t-41 -24l-175 -9
q11 -4 11 -27q0 -12 -2 -18q-17 -76 -46.5 -197t-39.5 -164q-6 -25 -11 -45l-9 -36q-8 -35 -24.5 -54zM328 -145q-19 -13 -49 -15l-209 -11q-28 -4 -43 -4q-44 3 -47 40v8q1 21 13.5 31t38 14t79.5 6l189 8q25 -2 36 -8t12 -24v-7q-1 -25 -20 -38z" />
    <glyph glyph-name="U" unicode="U" horiz-adv-x="662" 
d="M138.5 649.5q12.5 14.5 45.5 14.5q27 0 46.5 -6t20.5 -18q5 -3 5 -16q0 -21 -11 -64t-32 -112q-24 -83 -39 -141t-19 -99l-1 -14q0 -40 20 -65.5t49 -37t57 -11.5q64 0 101 29.5t56.5 81t36.5 140.5q9 45 28 130t25 103q9 26 11 40q6 23 12.5 35t20.5 21q4 1 11 2.5
t11 1.5q34 0 56.5 -6t26.5 -15q-15 -59 -41.5 -175.5t-38.5 -184.5q-55 -304 -330 -304q-70 0 -125 28t-86.5 77.5t-31.5 112.5q0 32 9 66l83 328q11 44 23.5 58.5z" />
    <glyph glyph-name="Uacute" unicode="&#xda;" horiz-adv-x="662" 
d="M384.5 810q39.5 38 78 67.5t49.5 29.5q21 0 48 -19t27 -35q0 -13 -14 -26t-57 -43q-61 -43 -93 -59.5t-58 -16.5q-19 0 -28 7t-9 24q0 8 3 12q14 21 53.5 59zM138.5 649.5q12.5 14.5 45.5 14.5q27 0 46.5 -6t20.5 -18q5 -3 5 -16q0 -21 -11 -64t-32 -112
q-24 -83 -39 -141t-19 -99l-1 -14q0 -40 20 -65.5t49 -37t57 -11.5q64 0 101 29.5t56.5 81t36.5 140.5q9 45 28 130t25 103q9 26 11 40q6 23 12.5 35t20.5 21q4 1 11 2.5t11 1.5q34 0 56.5 -6t26.5 -15q-15 -59 -41.5 -175.5t-38.5 -184.5q-55 -304 -330 -304q-70 0 -125 28
t-86.5 77.5t-31.5 112.5q0 32 9 66l83 328q11 44 23.5 58.5z" />
    <glyph glyph-name="Ubreve" unicode="&#x16c;" horiz-adv-x="662" 
d="M321 731.5q-37 24.5 -37 69.5q0 55 53 55q33 0 34 -32q1 -20 11 -28t45 -8q32 0 50 6.5t28.5 19t23.5 37.5q7 6 16.5 10t17.5 4q35 0 44 -14q-10 -70 -63 -106t-125 -38q-61 0 -98 24.5zM138.5 649.5q12.5 14.5 45.5 14.5q27 0 46.5 -6t20.5 -18q5 -3 5 -16
q0 -21 -11 -64t-32 -112q-24 -83 -39 -141t-19 -99l-1 -14q0 -40 20 -65.5t49 -37t57 -11.5q64 0 101 29.5t56.5 81t36.5 140.5q9 45 28 130t25 103q9 26 11 40q6 23 12.5 35t20.5 21q4 1 11 2.5t11 1.5q34 0 56.5 -6t26.5 -15q-15 -59 -41.5 -175.5t-38.5 -184.5
q-55 -304 -330 -304q-70 0 -125 28t-86.5 77.5t-31.5 112.5q0 32 9 66l83 328q11 44 23.5 58.5z" />
    <glyph glyph-name="uni01D3" unicode="&#x1d3;" horiz-adv-x="662" 
d="M374.5 722.5q-15.5 9.5 -38.5 39.5l-51 66q-10 13 -10 25q0 16 15.5 27.5t36.5 11.5q20 0 38 -21l55 -66q60 52 88.5 73t41.5 21q20 0 35.5 -9t15.5 -24q0 -11 -3.5 -20t-17.5 -20l-22 -18q-75 -62 -103 -83q-15 -12 -45 -12q-20 0 -35.5 9.5zM138.5 649.5
q12.5 14.5 45.5 14.5q27 0 46.5 -6t20.5 -18q5 -3 5 -16q0 -21 -11 -64t-32 -112q-24 -83 -39 -141t-19 -99l-1 -14q0 -40 20 -65.5t49 -37t57 -11.5q64 0 101 29.5t56.5 81t36.5 140.5q9 45 28 130t25 103q9 26 11 40q6 23 12.5 35t20.5 21q4 1 11 2.5t11 1.5q34 0 56.5 -6
t26.5 -15q-15 -59 -41.5 -175.5t-38.5 -184.5q-55 -304 -330 -304q-70 0 -125 28t-86.5 77.5t-31.5 112.5q0 32 9 66l83 328q11 44 23.5 58.5z" />
    <glyph glyph-name="Ucircumflex" unicode="&#xdb;" horiz-adv-x="662" 
d="M488.5 879.5q15.5 -9.5 38.5 -39.5l51 -66q10 -13 10 -25q0 -16 -15.5 -27.5t-36.5 -11.5q-20 0 -38 21l-55 66q-60 -52 -88.5 -73t-41.5 -21q-20 0 -35.5 9t-15.5 24q0 11 3.5 20t17.5 20l22 18q75 62 103 83q15 12 45 12q20 0 35.5 -9.5zM138.5 649.5
q12.5 14.5 45.5 14.5q27 0 46.5 -6t20.5 -18q5 -3 5 -16q0 -21 -11 -64t-32 -112q-24 -83 -39 -141t-19 -99l-1 -14q0 -40 20 -65.5t49 -37t57 -11.5q64 0 101 29.5t56.5 81t36.5 140.5q9 45 28 130t25 103q9 26 11 40q6 23 12.5 35t20.5 21q4 1 11 2.5t11 1.5q34 0 56.5 -6
t26.5 -15q-15 -59 -41.5 -175.5t-38.5 -184.5q-55 -304 -330 -304q-70 0 -125 28t-86.5 77.5t-31.5 112.5q0 32 9 66l83 328q11 44 23.5 58.5z" />
    <glyph glyph-name="uni0214" unicode="&#x214;" horiz-adv-x="662" 
d="M404 721.5q-5 -14.5 -15 -14.5l-4 1q-10 3 -20.5 13.5t-25.5 29.5q-24 27 -38 40.5t-32 19.5q-11 4 -17 9.5t-6 18.5q0 23 12.5 45t33.5 22q53 0 111 -132q6 -13 6 -26q0 -12 -5 -26.5zM579 721.5q-5 -14.5 -15 -14.5l-4 1q-10 3 -20.5 13.5t-25.5 29.5q-24 27 -38 40.5
t-32 19.5q-11 4 -17 9.5t-6 18.5q0 23 12.5 45t33.5 22q53 0 111 -132q6 -13 6 -26q0 -12 -5 -26.5zM138.5 649.5q12.5 14.5 45.5 14.5q27 0 46.5 -6t20.5 -18q5 -3 5 -16q0 -21 -11 -64t-32 -112q-24 -83 -39 -141t-19 -99l-1 -14q0 -40 20 -65.5t49 -37t57 -11.5
q64 0 101 29.5t56.5 81t36.5 140.5q9 45 28 130t25 103q9 26 11 40q6 23 12.5 35t20.5 21q4 1 11 2.5t11 1.5q34 0 56.5 -6t26.5 -15q-15 -59 -41.5 -175.5t-38.5 -184.5q-55 -304 -330 -304q-70 0 -125 28t-86.5 77.5t-31.5 112.5q0 32 9 66l83 328q11 44 23.5 58.5z" />
    <glyph glyph-name="Udieresis" unicode="&#xdc;" horiz-adv-x="662" 
d="M477 722q-23 20 -23 42q0 35 26 57.5t60 22.5q26 0 49 -20t23 -44q0 -32 -26.5 -55t-62.5 -23q-23 0 -46 20zM251 716.5q-21 18.5 -21 41.5q0 34 28 59t62 25q25 0 45 -21.5t20 -46.5q0 -32 -27 -54t-63 -22q-23 0 -44 18.5zM138.5 649.5q12.5 14.5 45.5 14.5
q27 0 46.5 -6t20.5 -18q5 -3 5 -16q0 -21 -11 -64t-32 -112q-24 -83 -39 -141t-19 -99l-1 -14q0 -40 20 -65.5t49 -37t57 -11.5q64 0 101 29.5t56.5 81t36.5 140.5q9 45 28 130t25 103q9 26 11 40q6 23 12.5 35t20.5 21q4 1 11 2.5t11 1.5q34 0 56.5 -6t26.5 -15
q-15 -59 -41.5 -175.5t-38.5 -184.5q-55 -304 -330 -304q-70 0 -125 28t-86.5 77.5t-31.5 112.5q0 32 9 66l83 328q11 44 23.5 58.5z" />
    <glyph glyph-name="uni01D7" unicode="&#x1d7;" horiz-adv-x="662" 
d="M496 973.5q56 48.5 69 48.5q16 0 37.5 -15t21.5 -28q0 -9 -8 -16.5t-24 -19t-23 -16.5q-48 -34 -73 -47.5t-46 -13.5q-15 0 -22 5.5t-7 18.5q0 4 2 10q17 25 73 73.5zM504 736q-22 19 -22 40q0 33 25 55t58 22q24 0 46.5 -19.5t22.5 -41.5q0 -31 -25.5 -53t-60.5 -22
q-22 0 -44 19zM278 731q-20 18 -20 39q0 33 27 57t59 24q24 0 43.5 -20.5t19.5 -44.5q0 -30 -26 -51.5t-61 -21.5q-22 0 -42 18zM138.5 649.5q12.5 14.5 45.5 14.5q27 0 46.5 -6t20.5 -18q5 -3 5 -16q0 -21 -11 -64t-32 -112q-24 -83 -39 -141t-19 -99l-1 -14
q0 -40 20 -65.5t49 -37t57 -11.5q64 0 101 29.5t56.5 81t36.5 140.5q9 45 28 130t25 103q9 26 11 40q6 23 12.5 35t20.5 21q4 1 11 2.5t11 1.5q34 0 56.5 -6t26.5 -15q-15 -59 -41.5 -175.5t-38.5 -184.5q-55 -304 -330 -304q-70 0 -125 28t-86.5 77.5t-31.5 112.5
q0 32 9 66l83 328q11 44 23.5 58.5z" />
    <glyph glyph-name="uni01D9" unicode="&#x1d9;" horiz-adv-x="662" 
d="M415.5 864q-14.5 8 -37.5 36l-49 57q-9 12 -9 22q0 14 15 25t34 11q9 0 19 -5.5t18 -13.5l53 -59q55 45 83.5 64t41.5 19q19 0 33.5 -7.5t14.5 -20.5q0 -16 -22.5 -36.5t-75.5 -59.5q-9 -6 -42 -30q-13 -10 -43 -10q-19 0 -33.5 8zM503 736q-22 19 -22 40q0 33 25 55
t58 22q24 0 46.5 -19.5t22.5 -41.5q0 -31 -25.5 -53t-60.5 -22q-22 0 -44 19zM277 731q-20 18 -20 39q0 33 27 57t59 24q24 0 43.5 -20.5t19.5 -44.5q0 -30 -26 -51.5t-61 -21.5q-22 0 -42 18zM138.5 649.5q12.5 14.5 45.5 14.5q27 0 46.5 -6t20.5 -18q5 -3 5 -16
q0 -21 -11 -64t-32 -112q-24 -83 -39 -141t-19 -99l-1 -14q0 -40 20 -65.5t49 -37t57 -11.5q64 0 101 29.5t56.5 81t36.5 140.5q9 45 28 130t25 103q9 26 11 40q6 23 12.5 35t20.5 21q4 1 11 2.5t11 1.5q34 0 56.5 -6t26.5 -15q-15 -59 -41.5 -175.5t-38.5 -184.5
q-55 -304 -330 -304q-70 0 -125 28t-86.5 77.5t-31.5 112.5q0 32 9 66l83 328q11 44 23.5 58.5z" />
    <glyph glyph-name="uni01DB" unicode="&#x1db;" horiz-adv-x="662" 
d="M504 890q0 -13 -7 -18.5t-22 -5.5q-21 0 -46 13.5t-73 47.5q-7 5 -25 18t-24 20t-6 14q0 13 21.5 28t37.5 15q13 0 69 -48.5t73 -73.5q2 -6 2 -10zM509 736q-22 19 -22 40q0 33 25 55t58 22q24 0 46.5 -19.5t22.5 -41.5q0 -31 -25.5 -53t-60.5 -22q-22 0 -44 19zM283 731
q-20 18 -20 39q0 33 27 57t59 24q24 0 43.5 -20.5t19.5 -44.5q0 -30 -26 -51.5t-61 -21.5q-22 0 -42 18zM138.5 649.5q12.5 14.5 45.5 14.5q27 0 46.5 -6t20.5 -18q5 -3 5 -16q0 -21 -11 -64t-32 -112q-24 -83 -39 -141t-19 -99l-1 -14q0 -40 20 -65.5t49 -37t57 -11.5
q64 0 101 29.5t56.5 81t36.5 140.5q9 45 28 130t25 103q9 26 11 40q6 23 12.5 35t20.5 21q4 1 11 2.5t11 1.5q34 0 56.5 -6t26.5 -15q-15 -59 -41.5 -175.5t-38.5 -184.5q-55 -304 -330 -304q-70 0 -125 28t-86.5 77.5t-31.5 112.5q0 32 9 66l83 328q11 44 23.5 58.5z" />
    <glyph glyph-name="uni01D5" unicode="&#x1d5;" horiz-adv-x="662" 
d="M619 926q-19 -13 -49 -15l-209 -11q-28 -4 -43 -4q-44 3 -47 40v8q2 22 14.5 34t39.5 17.5t77 7.5l189 8q47 -3 48 -40v-7q-1 -25 -20 -38zM504 732q-23 20 -23 42q0 35 26 57.5t60 22.5q26 0 49 -20t23 -44q0 -32 -26.5 -55t-62.5 -23q-23 0 -46 20zM278 726.5
q-21 18.5 -21 41.5q0 34 28 59t62 25q25 0 45 -21.5t20 -46.5q0 -32 -27 -54t-63 -22q-23 0 -44 18.5zM138.5 649.5q12.5 14.5 45.5 14.5q27 0 46.5 -6t20.5 -18q5 -3 5 -16q0 -21 -11 -64t-32 -112q-24 -83 -39 -141t-19 -99l-1 -14q0 -40 20 -65.5t49 -37t57 -11.5
q64 0 101 29.5t56.5 81t36.5 140.5q9 45 28 130t25 103q9 26 11 40q6 23 12.5 35t20.5 21q4 1 11 2.5t11 1.5q34 0 56.5 -6t26.5 -15q-15 -59 -41.5 -175.5t-38.5 -184.5q-55 -304 -330 -304q-70 0 -125 28t-86.5 77.5t-31.5 112.5q0 32 9 66l83 328q11 44 23.5 58.5z" />
    <glyph glyph-name="uni1EE4" unicode="&#x1ee4;" horiz-adv-x="662" 
d="M138.5 649.5q12.5 14.5 45.5 14.5q27 0 46.5 -6t20.5 -18q5 -3 5 -16q0 -21 -11 -64t-32 -112q-24 -83 -39 -141t-19 -99l-1 -14q0 -40 20 -65.5t49 -37t57 -11.5q64 0 101 29.5t56.5 81t36.5 140.5q9 45 28 130t25 103q9 26 11 40q6 23 12.5 35t20.5 21q4 1 11 2.5
t11 1.5q34 0 56.5 -6t26.5 -15q-15 -59 -41.5 -175.5t-38.5 -184.5q-55 -304 -330 -304q-70 0 -125 28t-86.5 77.5t-31.5 112.5q0 32 9 66l83 328q11 44 23.5 58.5zM156 -196.5q-21 18.5 -21 41.5q0 34 28 59t62 25q25 0 45 -21.5t20 -46.5q0 -32 -27 -54t-63 -22
q-23 0 -44 18.5z" />
    <glyph glyph-name="Ugrave" unicode="&#xd9;" horiz-adv-x="662" 
d="M506 739q0 -17 -9 -24t-28 -7q-26 0 -58 16.5t-93 59.5q-43 30 -57 43t-14 26q0 16 27 35t48 19q11 0 49.5 -29.5t78 -67.5t53.5 -59q3 -4 3 -12zM138.5 649.5q12.5 14.5 45.5 14.5q27 0 46.5 -6t20.5 -18q5 -3 5 -16q0 -21 -11 -64t-32 -112q-24 -83 -39 -141t-19 -99
l-1 -14q0 -40 20 -65.5t49 -37t57 -11.5q64 0 101 29.5t56.5 81t36.5 140.5q9 45 28 130t25 103q9 26 11 40q6 23 12.5 35t20.5 21q4 1 11 2.5t11 1.5q34 0 56.5 -6t26.5 -15q-15 -59 -41.5 -175.5t-38.5 -184.5q-55 -304 -330 -304q-70 0 -125 28t-86.5 77.5t-31.5 112.5
q0 32 9 66l83 328q11 44 23.5 58.5z" />
    <glyph glyph-name="uni1EE6" unicode="&#x1ee6;" horiz-adv-x="662" 
d="M405 704q-16 0 -25 5t-9 14q0 7 16 66q4 16 17 24t38 16t37 16.5t12 26.5q0 8 -8.5 15t-28.5 7q-21 0 -31.5 -4.5t-11.5 -5.5t-8.5 -4.5t-18.5 -3.5q-10 0 -17.5 10t-7.5 21q0 29 32.5 40t76.5 11q43 0 76 -19t33 -56q0 -38 -24 -60.5t-62 -37.5q-18 -7 -25 -17
t-10 -20.5t-5 -16.5q-15 -27 -46 -27zM138.5 649.5q12.5 14.5 45.5 14.5q27 0 46.5 -6t20.5 -18q5 -3 5 -16q0 -21 -11 -64t-32 -112q-24 -83 -39 -141t-19 -99l-1 -14q0 -40 20 -65.5t49 -37t57 -11.5q64 0 101 29.5t56.5 81t36.5 140.5q9 45 28 130t25 103q9 26 11 40
q6 23 12.5 35t20.5 21q4 1 11 2.5t11 1.5q34 0 56.5 -6t26.5 -15q-15 -59 -41.5 -175.5t-38.5 -184.5q-55 -304 -330 -304q-70 0 -125 28t-86.5 77.5t-31.5 112.5q0 32 9 66l83 328q11 44 23.5 58.5z" />
    <glyph glyph-name="Uhorn" unicode="&#x1af;" horiz-adv-x="762" 
d="M812.5 517q-21.5 -40 -60.5 -64t-90 -24q-24 0 -36 4q-20 -95 -30 -150q-55 -304 -330 -304q-70 0 -125 28t-86.5 77.5t-31.5 112.5q0 32 9 66l83 328q11 44 23.5 58.5t45.5 14.5q27 0 46.5 -6t20.5 -18q5 -3 5 -16q0 -21 -11 -64t-32 -112q-24 -83 -39 -141t-19 -99
l-1 -14q0 -40 20 -65.5t49 -37t57 -11.5q64 0 101 29.5t56.5 81t36.5 140.5q9 45 28 130t25 103q9 26 11 40q6 23 12.5 35t20.5 21q4 1 11 2.5t11 1.5q34 0 56.5 -6t26.5 -15q-17 -63 -40 -165q32 3 51.5 9t33 24.5t13.5 54.5q0 9 -3.5 22.5t-3.5 19.5q0 17 11.5 33.5
t29.5 16.5h24q42 0 42 -55q0 -46 -21.5 -86z" />
    <glyph glyph-name="uni1EE8" unicode="&#x1ee8;" horiz-adv-x="762" 
d="M399.5 805q39.5 38 78 67.5t49.5 29.5q21 0 48 -19t27 -35q0 -13 -14 -26t-57 -43q-61 -43 -93 -59.5t-58 -16.5q-19 0 -28 7t-9 24q0 8 3 12q14 21 53.5 59zM812.5 517q-21.5 -40 -60.5 -64t-90 -24q-24 0 -36 4q-20 -95 -30 -150q-55 -304 -330 -304q-70 0 -125 28
t-86.5 77.5t-31.5 112.5q0 32 9 66l83 328q11 44 23.5 58.5t45.5 14.5q27 0 46.5 -6t20.5 -18q5 -3 5 -16q0 -21 -11 -64t-32 -112q-24 -83 -39 -141t-19 -99l-1 -14q0 -40 20 -65.5t49 -37t57 -11.5q64 0 101 29.5t56.5 81t36.5 140.5q9 45 28 130t25 103q9 26 11 40
q6 23 12.5 35t20.5 21q4 1 11 2.5t11 1.5q34 0 56.5 -6t26.5 -15q-17 -63 -40 -165q32 3 51.5 9t33 24.5t13.5 54.5q0 9 -3.5 22.5t-3.5 19.5q0 17 11.5 33.5t29.5 16.5h24q42 0 42 -55q0 -46 -21.5 -86z" />
    <glyph glyph-name="uni1EF0" unicode="&#x1ef0;" horiz-adv-x="762" 
d="M812.5 517q-21.5 -40 -60.5 -64t-90 -24q-24 0 -36 4q-20 -95 -30 -150q-55 -304 -330 -304q-70 0 -125 28t-86.5 77.5t-31.5 112.5q0 32 9 66l83 328q11 44 23.5 58.5t45.5 14.5q27 0 46.5 -6t20.5 -18q5 -3 5 -16q0 -21 -11 -64t-32 -112q-24 -83 -39 -141t-19 -99
l-1 -14q0 -40 20 -65.5t49 -37t57 -11.5q64 0 101 29.5t56.5 81t36.5 140.5q9 45 28 130t25 103q9 26 11 40q6 23 12.5 35t20.5 21q4 1 11 2.5t11 1.5q34 0 56.5 -6t26.5 -15q-17 -63 -40 -165q32 3 51.5 9t33 24.5t13.5 54.5q0 9 -3.5 22.5t-3.5 19.5q0 17 11.5 33.5
t29.5 16.5h24q42 0 42 -55q0 -46 -21.5 -86zM153 -196.5q-21 18.5 -21 41.5q0 34 28 59t62 25q25 0 45 -21.5t20 -46.5q0 -32 -27 -54t-63 -22q-23 0 -44 18.5z" />
    <glyph glyph-name="uni1EEA" unicode="&#x1eea;" horiz-adv-x="762" 
d="M526 737q0 -17 -9 -24t-28 -7q-26 0 -58 16.5t-93 59.5q-43 30 -57 43t-14 26q0 16 27 35t48 19q11 0 49.5 -29.5t78 -67.5t53.5 -59q3 -4 3 -12zM812.5 517q-21.5 -40 -60.5 -64t-90 -24q-24 0 -36 4q-20 -95 -30 -150q-55 -304 -330 -304q-70 0 -125 28t-86.5 77.5
t-31.5 112.5q0 32 9 66l83 328q11 44 23.5 58.5t45.5 14.5q27 0 46.5 -6t20.5 -18q5 -3 5 -16q0 -21 -11 -64t-32 -112q-24 -83 -39 -141t-19 -99l-1 -14q0 -40 20 -65.5t49 -37t57 -11.5q64 0 101 29.5t56.5 81t36.5 140.5q9 45 28 130t25 103q9 26 11 40q6 23 12.5 35
t20.5 21q4 1 11 2.5t11 1.5q34 0 56.5 -6t26.5 -15q-17 -63 -40 -165q32 3 51.5 9t33 24.5t13.5 54.5q0 9 -3.5 22.5t-3.5 19.5q0 17 11.5 33.5t29.5 16.5h24q42 0 42 -55q0 -46 -21.5 -86z" />
    <glyph glyph-name="uni1EEC" unicode="&#x1eec;" horiz-adv-x="762" 
d="M419 705q-16 0 -25 5t-9 14q0 7 16 66q4 16 17 24t38 16t37 16.5t12 26.5q0 8 -8.5 15t-28.5 7q-21 0 -31.5 -4.5t-11.5 -5.5t-8.5 -4.5t-18.5 -3.5q-10 0 -17.5 10t-7.5 21q0 29 32.5 40t76.5 11q43 0 76 -19t33 -56q0 -38 -24 -60.5t-62 -37.5q-18 -7 -25 -17
t-10 -20.5t-5 -16.5q-15 -27 -46 -27zM812.5 517q-21.5 -40 -60.5 -64t-90 -24q-24 0 -36 4q-20 -95 -30 -150q-55 -304 -330 -304q-70 0 -125 28t-86.5 77.5t-31.5 112.5q0 32 9 66l83 328q11 44 23.5 58.5t45.5 14.5q27 0 46.5 -6t20.5 -18q5 -3 5 -16q0 -21 -11 -64
t-32 -112q-24 -83 -39 -141t-19 -99l-1 -14q0 -40 20 -65.5t49 -37t57 -11.5q64 0 101 29.5t56.5 81t36.5 140.5q9 45 28 130t25 103q9 26 11 40q6 23 12.5 35t20.5 21q4 1 11 2.5t11 1.5q34 0 56.5 -6t26.5 -15q-17 -63 -40 -165q32 3 51.5 9t33 24.5t13.5 54.5
q0 9 -3.5 22.5t-3.5 19.5q0 17 11.5 33.5t29.5 16.5h24q42 0 42 -55q0 -46 -21.5 -86z" />
    <glyph glyph-name="uni1EEE" unicode="&#x1eee;" horiz-adv-x="762" 
d="M286 707q-12 7 -17 17.5t-5 36.5q0 20 21 42t50.5 36.5t53.5 14.5q44 0 90 -35q19 -15 34 -21t32 -6q12 0 22 6.5t20 16t15 14.5q4 4 9 4q4 0 8 -5t5 -5q2 0 2 -9q0 -28 -19 -52.5t-44 -39.5t-40 -15q-23 0 -41.5 7.5t-44.5 24.5q-19 15 -33.5 21t-30.5 6q-33 0 -87 -59z
M812.5 517q-21.5 -40 -60.5 -64t-90 -24q-24 0 -36 4q-20 -95 -30 -150q-55 -304 -330 -304q-70 0 -125 28t-86.5 77.5t-31.5 112.5q0 32 9 66l83 328q11 44 23.5 58.5t45.5 14.5q27 0 46.5 -6t20.5 -18q5 -3 5 -16q0 -21 -11 -64t-32 -112q-24 -83 -39 -141t-19 -99l-1 -14
q0 -40 20 -65.5t49 -37t57 -11.5q64 0 101 29.5t56.5 81t36.5 140.5q9 45 28 130t25 103q9 26 11 40q6 23 12.5 35t20.5 21q4 1 11 2.5t11 1.5q34 0 56.5 -6t26.5 -15q-17 -63 -40 -165q32 3 51.5 9t33 24.5t13.5 54.5q0 9 -3.5 22.5t-3.5 19.5q0 17 11.5 33.5t29.5 16.5h24
q42 0 42 -55q0 -46 -21.5 -86z" />
    <glyph glyph-name="Uhungarumlaut" unicode="&#x170;" horiz-adv-x="662" 
d="M292 715q0 10 5.5 21.5t19.5 34.5q18 28 27 47.5t9 38.5q0 16 8.5 25t37.5 9q30 0 41.5 -11.5t11.5 -25.5q0 -30 -25 -65t-67 -71q-19 -17 -45 -17q-23 0 -23 14zM460 715q0 17 26 56q18 30 26.5 48.5t8.5 37.5q0 16 8.5 25t37.5 9q30 0 41.5 -11.5t11.5 -25.5
q0 -55 -92 -136q-20 -17 -46 -17q-22 0 -22 14zM138.5 649.5q12.5 14.5 45.5 14.5q27 0 46.5 -6t20.5 -18q5 -3 5 -16q0 -21 -11 -64t-32 -112q-24 -83 -39 -141t-19 -99l-1 -14q0 -40 20 -65.5t49 -37t57 -11.5q64 0 101 29.5t56.5 81t36.5 140.5q9 45 28 130t25 103
q9 26 11 40q6 23 12.5 35t20.5 21q4 1 11 2.5t11 1.5q34 0 56.5 -6t26.5 -15q-15 -59 -41.5 -175.5t-38.5 -184.5q-55 -304 -330 -304q-70 0 -125 28t-86.5 77.5t-31.5 112.5q0 32 9 66l83 328q11 44 23.5 58.5z" />
    <glyph glyph-name="uni0216" unicode="&#x216;" horiz-adv-x="662" 
d="M553.5 834q41.5 -22 41.5 -65q0 -56 -49 -56q-41 0 -43 28q-2 34 -56 34q-87 0 -104 -56q-2 -8 -14.5 -13.5t-21.5 -5.5q-25 0 -38 5t-13 19q0 123 197 132q59 0 100.5 -22zM138.5 649.5q12.5 14.5 45.5 14.5q27 0 46.5 -6t20.5 -18q5 -3 5 -16q0 -21 -11 -64t-32 -112
q-24 -83 -39 -141t-19 -99l-1 -14q0 -40 20 -65.5t49 -37t57 -11.5q64 0 101 29.5t56.5 81t36.5 140.5q9 45 28 130t25 103q9 26 11 40q6 23 12.5 35t20.5 21q4 1 11 2.5t11 1.5q34 0 56.5 -6t26.5 -15q-15 -59 -41.5 -175.5t-38.5 -184.5q-55 -304 -330 -304q-70 0 -125 28
t-86.5 77.5t-31.5 112.5q0 32 9 66l83 328q11 44 23.5 58.5z" />
    <glyph glyph-name="Umacron" unicode="&#x16a;" horiz-adv-x="662" 
d="M593 743q-19 -13 -49 -15l-209 -11q-28 -4 -43 -4q-44 3 -47 40v8q2 22 14.5 34t39.5 17.5t77 7.5l189 8q47 -3 48 -40v-7q-1 -25 -20 -38zM138.5 649.5q12.5 14.5 45.5 14.5q27 0 46.5 -6t20.5 -18q5 -3 5 -16q0 -21 -11 -64t-32 -112q-24 -83 -39 -141t-19 -99l-1 -14
q0 -40 20 -65.5t49 -37t57 -11.5q64 0 101 29.5t56.5 81t36.5 140.5q9 45 28 130t25 103q9 26 11 40q6 23 12.5 35t20.5 21q4 1 11 2.5t11 1.5q34 0 56.5 -6t26.5 -15q-15 -59 -41.5 -175.5t-38.5 -184.5q-55 -304 -330 -304q-70 0 -125 28t-86.5 77.5t-31.5 112.5
q0 32 9 66l83 328q11 44 23.5 58.5z" />
    <glyph glyph-name="Uogonek" unicode="&#x172;" horiz-adv-x="662" 
d="M649.5 658q22.5 -6 26.5 -15q-15 -59 -41.5 -175.5t-38.5 -184.5q-40 -223 -201 -283q-37 -34 -54 -60.5t-17 -55.5q0 -45 45 -45q23 0 48 6q14 -10 14 -20q0 -25 -33 -35t-67 -10q-48 0 -81.5 25t-33.5 79q0 23 19.5 48.5t53.5 47.5q-7 -1 -23 -1q-70 0 -125 28
t-86.5 77.5t-31.5 112.5q0 32 9 66l83 328q11 44 23.5 58.5t45.5 14.5q27 0 46.5 -6t20.5 -18q5 -3 5 -16q0 -21 -11 -64t-32 -112q-24 -83 -39 -141t-19 -99l-1 -14q0 -40 20 -65.5t49 -37t57 -11.5q64 0 101 29.5t56.5 81t36.5 140.5q9 45 28 130t25 103q9 26 11 40
q6 23 12.5 35t20.5 21q4 1 11 2.5t11 1.5q34 0 56.5 -6z" />
    <glyph glyph-name="Uring" unicode="&#x16e;" horiz-adv-x="662" 
d="M344.5 731.5q-25.5 27.5 -25.5 68.5q0 53 39.5 85t101.5 32q37 0 65.5 -29t28.5 -73q0 -30 -19.5 -55.5t-52 -40.5t-69.5 -15q-43 0 -68.5 27.5zM467 772.5q18 16.5 18 47.5q0 18 -10.5 28.5t-26.5 10.5q-64 0 -64 -63q0 -18 13 -29t28 -11q24 0 42 16.5zM138.5 649.5
q12.5 14.5 45.5 14.5q27 0 46.5 -6t20.5 -18q5 -3 5 -16q0 -21 -11 -64t-32 -112q-24 -83 -39 -141t-19 -99l-1 -14q0 -40 20 -65.5t49 -37t57 -11.5q64 0 101 29.5t56.5 81t36.5 140.5q9 45 28 130t25 103q9 26 11 40q6 23 12.5 35t20.5 21q4 1 11 2.5t11 1.5q34 0 56.5 -6
t26.5 -15q-15 -59 -41.5 -175.5t-38.5 -184.5q-55 -304 -330 -304q-70 0 -125 28t-86.5 77.5t-31.5 112.5q0 32 9 66l83 328q11 44 23.5 58.5z" />
    <glyph glyph-name="Utilde" unicode="&#x168;" horiz-adv-x="662" 
d="M290 713q-12 7 -17 17.5t-5 36.5q0 20 21 42t50.5 36.5t53.5 14.5q44 0 90 -35q19 -15 34 -21t32 -6q12 0 22 6.5t20 16t15 14.5q4 4 9 4q4 0 8 -5t5 -5q2 0 2 -9q0 -28 -19 -52.5t-44 -39.5t-40 -15q-23 0 -41.5 7.5t-44.5 24.5q-19 15 -33.5 21t-30.5 6q-33 0 -87 -59z
M138.5 649.5q12.5 14.5 45.5 14.5q27 0 46.5 -6t20.5 -18q5 -3 5 -16q0 -21 -11 -64t-32 -112q-24 -83 -39 -141t-19 -99l-1 -14q0 -40 20 -65.5t49 -37t57 -11.5q64 0 101 29.5t56.5 81t36.5 140.5q9 45 28 130t25 103q9 26 11 40q6 23 12.5 35t20.5 21q4 1 11 2.5t11 1.5
q34 0 56.5 -6t26.5 -15q-15 -59 -41.5 -175.5t-38.5 -184.5q-55 -304 -330 -304q-70 0 -125 28t-86.5 77.5t-31.5 112.5q0 32 9 66l83 328q11 44 23.5 58.5z" />
    <glyph glyph-name="V" unicode="V" horiz-adv-x="594" 
d="M115 -2q-16 10 -20.5 26.5t-6.5 55.5q-2 59 -10 184q-1 20 -7 129t-6 209q0 24 21.5 40.5t54.5 16.5q30 0 44 -16.5t14 -50.5l1 -398v-99q80 177 183 371.5t132 194.5q37 0 60 -17t24 -40q-6 -13 -49 -92l-47 -83l-34 -63q-101 -185 -141 -255t-67 -99
q-12 -14 -36.5 -23.5t-53.5 -9.5q-40 9 -56 19z" />
    <glyph glyph-name="W" unicode="W" horiz-adv-x="771" 
d="M306 130q-41 -72 -85 -110t-84 -38q-92 0 -92 189q0 116 28 230.5t62 196.5q10 26 26 41.5t45 15.5q27 0 43 -13.5t16 -40.5l-1 -12q0 -2 -12 -33q-30 -81 -53.5 -155t-29.5 -141q-3 -34 -3 -67t7 -53.5t20 -20.5q29 0 70.5 83.5t79.5 200t56 204.5q4 19 23 32t33 13
q25 0 36.5 -12.5t11.5 -38.5l-1 -14q0 -4 -2 -11t-4 -18q-48 -228 -58 -340q-1 -8 -1 -24q0 -34 9.5 -54.5t24.5 -20.5q49 0 99 152.5t89 338.5q4 18 17.5 26.5t32.5 8.5q24 0 49 -10t25 -22l-16 -70q-37 -164 -74.5 -280t-98 -198.5t-146.5 -82.5q-84 0 -84 154
q0 71 18 165h-4q-31 -99 -72 -171z" />
    <glyph glyph-name="Wacute" unicode="&#x1e82;" horiz-adv-x="771" 
d="M465.5 815q39.5 38 78 67.5t49.5 29.5q21 0 48 -19t27 -35q0 -13 -14 -26t-57 -43q-61 -43 -93 -59.5t-58 -16.5q-19 0 -28 7t-9 24q0 8 3 12q14 21 53.5 59zM306 130q-41 -72 -85 -110t-84 -38q-92 0 -92 189q0 116 28 230.5t62 196.5q10 26 26 41.5t45 15.5
q27 0 43 -13.5t16 -40.5l-1 -12q0 -2 -12 -33q-30 -81 -53.5 -155t-29.5 -141q-3 -34 -3 -67t7 -53.5t20 -20.5q29 0 70.5 83.5t79.5 200t56 204.5q4 19 23 32t33 13q25 0 36.5 -12.5t11.5 -38.5l-1 -14q0 -4 -2 -11t-4 -18q-48 -228 -58 -340q-1 -8 -1 -24q0 -34 9.5 -54.5
t24.5 -20.5q49 0 99 152.5t89 338.5q4 18 17.5 26.5t32.5 8.5q24 0 49 -10t25 -22l-16 -70q-37 -164 -74.5 -280t-98 -198.5t-146.5 -82.5q-84 0 -84 154q0 71 18 165h-4q-31 -99 -72 -171z" />
    <glyph glyph-name="Wcircumflex" unicode="&#x174;" horiz-adv-x="771" 
d="M551.5 886.5q15.5 -9.5 38.5 -39.5l51 -66q10 -13 10 -25q0 -16 -15.5 -27.5t-36.5 -11.5q-20 0 -38 21l-55 66q-60 -52 -88.5 -73t-41.5 -21q-20 0 -35.5 9t-15.5 24q0 11 3.5 20t17.5 20l22 18q75 62 103 83q15 12 45 12q20 0 35.5 -9.5zM306 130q-41 -72 -85 -110
t-84 -38q-92 0 -92 189q0 116 28 230.5t62 196.5q10 26 26 41.5t45 15.5q27 0 43 -13.5t16 -40.5l-1 -12q0 -2 -12 -33q-30 -81 -53.5 -155t-29.5 -141q-3 -34 -3 -67t7 -53.5t20 -20.5q29 0 70.5 83.5t79.5 200t56 204.5q4 19 23 32t33 13q25 0 36.5 -12.5t11.5 -38.5
l-1 -14q0 -4 -2 -11t-4 -18q-48 -228 -58 -340q-1 -8 -1 -24q0 -34 9.5 -54.5t24.5 -20.5q49 0 99 152.5t89 338.5q4 18 17.5 26.5t32.5 8.5q24 0 49 -10t25 -22l-16 -70q-37 -164 -74.5 -280t-98 -198.5t-146.5 -82.5q-84 0 -84 154q0 71 18 165h-4q-31 -99 -72 -171z" />
    <glyph glyph-name="Wdieresis" unicode="&#x1e84;" horiz-adv-x="771" 
d="M547 737q-23 20 -23 42q0 35 26 57.5t60 22.5q26 0 49 -20t23 -44q0 -32 -26.5 -55t-62.5 -23q-23 0 -46 20zM321 731.5q-21 18.5 -21 41.5q0 34 28 59t62 25q25 0 45 -21.5t20 -46.5q0 -32 -27 -54t-63 -22q-23 0 -44 18.5zM306 130q-41 -72 -85 -110t-84 -38
q-92 0 -92 189q0 116 28 230.5t62 196.5q10 26 26 41.5t45 15.5q27 0 43 -13.5t16 -40.5l-1 -12q0 -2 -12 -33q-30 -81 -53.5 -155t-29.5 -141q-3 -34 -3 -67t7 -53.5t20 -20.5q29 0 70.5 83.5t79.5 200t56 204.5q4 19 23 32t33 13q25 0 36.5 -12.5t11.5 -38.5l-1 -14
q0 -4 -2 -11t-4 -18q-48 -228 -58 -340q-1 -8 -1 -24q0 -34 9.5 -54.5t24.5 -20.5q49 0 99 152.5t89 338.5q4 18 17.5 26.5t32.5 8.5q24 0 49 -10t25 -22l-16 -70q-37 -164 -74.5 -280t-98 -198.5t-146.5 -82.5q-84 0 -84 154q0 71 18 165h-4q-31 -99 -72 -171z" />
    <glyph glyph-name="Wgrave" unicode="&#x1e80;" horiz-adv-x="771" 
d="M558 744q0 -17 -9 -24t-28 -7q-26 0 -58 16.5t-93 59.5q-43 30 -57 43t-14 26q0 16 27 35t48 19q11 0 49.5 -29.5t78 -67.5t53.5 -59q3 -4 3 -12zM306 130q-41 -72 -85 -110t-84 -38q-92 0 -92 189q0 116 28 230.5t62 196.5q10 26 26 41.5t45 15.5q27 0 43 -13.5
t16 -40.5l-1 -12q0 -2 -12 -33q-30 -81 -53.5 -155t-29.5 -141q-3 -34 -3 -67t7 -53.5t20 -20.5q29 0 70.5 83.5t79.5 200t56 204.5q4 19 23 32t33 13q25 0 36.5 -12.5t11.5 -38.5l-1 -14q0 -4 -2 -11t-4 -18q-48 -228 -58 -340q-1 -8 -1 -24q0 -34 9.5 -54.5t24.5 -20.5
q49 0 99 152.5t89 338.5q4 18 17.5 26.5t32.5 8.5q24 0 49 -10t25 -22l-16 -70q-37 -164 -74.5 -280t-98 -198.5t-146.5 -82.5q-84 0 -84 154q0 71 18 165h-4q-31 -99 -72 -171z" />
    <glyph glyph-name="X" unicode="X" horiz-adv-x="660" 
d="M633 616q0 -13 -1 -18l-2 -11q-1 -8 -6.5 -13t-21.5 -14q-4 -3 -16 -10t-22 -16q-30 -29 -194 -216l49 -87q12 -19 34 -59l34 -61q24 -42 24 -65v-5q-1 -18 -17 -30q-16 -11 -37 -11q-23 0 -67 54q-45 55 -110 164q-179 -200 -214 -223q-24 -15 -45 -15q-6 0 -9 2t-8 8
t-13 12q-21 16 -21 34v4q3 11 6 15l21 18q39 34 226 247q-45 87 -73 160.5t-28 117.5q0 10 1 15q2 18 7.5 26t15.5 11q32 10 60 10q19 0 37.5 -10.5t19.5 -28.5q-1 -6 -1 -18q0 -65 53 -178q135 155 181 199q50 48 83 48q54 0 54 -56z" />
    <glyph glyph-name="Y" unicode="Y" horiz-adv-x="555" 
d="M578 649q25 -11 26 -25q-8 -12 -54 -65l-42 -47q-101 -120 -158.5 -182.5t-88.5 -84.5q-6 -4 -18 -9q-5 -37 -33 -151l-11 -44q-7 -29 -20.5 -39t-53.5 -10q-30 0 -43 10t-13 36q0 11 3 21l40 160q2 5 4 17q-17 6 -21.5 16.5t-6.5 35.5q-6 76 -10 119q-1 14 -7 83.5
t-6 132.5q0 15 21.5 25.5t54.5 10.5q30 0 44 -10.5t14 -32.5l1 -255v-63q81 114 183.5 238t131.5 124q38 0 63 -11z" />
    <glyph glyph-name="Yacute" unicode="&#xdd;" horiz-adv-x="555" 
d="M263 715q-9 7 -9 24q0 8 3 12q14 21 53.5 59t78 67.5t49.5 29.5q21 0 48 -19t27 -35q0 -13 -14 -26t-57 -43q-61 -43 -93 -59.5t-58 -16.5q-19 0 -28 7zM578 649q25 -11 26 -25q-8 -12 -54 -65l-42 -47q-101 -120 -158.5 -182.5t-88.5 -84.5q-6 -4 -18 -9
q-5 -37 -33 -151l-11 -44q-7 -29 -20.5 -39t-53.5 -10q-30 0 -43 10t-13 36q0 11 3 21l40 160q2 5 4 17q-17 6 -21.5 16.5t-6.5 35.5q-6 76 -10 119q-1 14 -7 83.5t-6 132.5q0 15 21.5 25.5t54.5 10.5q30 0 44 -10.5t14 -32.5l1 -255v-63q81 114 183.5 238t131.5 124
q38 0 63 -11z" />
    <glyph glyph-name="Ycircumflex" unicode="&#x176;" horiz-adv-x="555" 
d="M208.5 716q-15.5 9 -15.5 24q0 11 3.5 20t17.5 20l22 18q75 62 103 83q15 12 45 12q20 0 35.5 -9.5t38.5 -39.5l51 -66q10 -13 10 -25q0 -16 -15.5 -27.5t-36.5 -11.5q-20 0 -38 21l-55 66q-60 -52 -88.5 -73t-41.5 -21q-20 0 -35.5 9zM578 649q25 -11 26 -25
q-8 -12 -54 -65l-42 -47q-101 -120 -158.5 -182.5t-88.5 -84.5q-6 -4 -18 -9q-5 -37 -33 -151l-11 -44q-7 -29 -20.5 -39t-53.5 -10q-30 0 -43 10t-13 36q0 11 3 21l40 160q2 5 4 17q-17 6 -21.5 16.5t-6.5 35.5q-6 76 -10 119q-1 14 -7 83.5t-6 132.5q0 15 21.5 25.5
t54.5 10.5q30 0 44 -10.5t14 -32.5l1 -255v-63q81 114 183.5 238t131.5 124q38 0 63 -11z" />
    <glyph glyph-name="Ydieresis" unicode="&#x178;" horiz-adv-x="555" 
d="M415 728q-23 20 -23 42q0 35 26 57.5t60 22.5q26 0 49 -20t23 -44q0 -32 -26.5 -55t-62.5 -23q-23 0 -46 20zM189 722.5q-21 18.5 -21 41.5q0 34 28 59t62 25q25 0 45 -21.5t20 -46.5q0 -32 -27 -54t-63 -22q-23 0 -44 18.5zM578 649q25 -11 26 -25q-8 -12 -54 -65
l-42 -47q-101 -120 -158.5 -182.5t-88.5 -84.5q-6 -4 -18 -9q-5 -37 -33 -151l-11 -44q-7 -29 -20.5 -39t-53.5 -10q-30 0 -43 10t-13 36q0 11 3 21l40 160q2 5 4 17q-17 6 -21.5 16.5t-6.5 35.5q-6 76 -10 119q-1 14 -7 83.5t-6 132.5q0 15 21.5 25.5t54.5 10.5
q30 0 44 -10.5t14 -32.5l1 -255v-63q81 114 183.5 238t131.5 124q38 0 63 -11z" />
    <glyph glyph-name="uni1E8E" unicode="&#x1e8e;" horiz-adv-x="555" 
d="M285 730.5q-21 18.5 -21 41.5q0 34 28 59t62 25q25 0 45 -21.5t20 -46.5q0 -32 -27 -54t-63 -22q-23 0 -44 18.5zM578 649q25 -11 26 -25q-8 -12 -54 -65l-42 -47q-101 -120 -158.5 -182.5t-88.5 -84.5q-6 -4 -18 -9q-5 -37 -33 -151l-11 -44q-7 -29 -20.5 -39t-53.5 -10
q-30 0 -43 10t-13 36q0 11 3 21l40 160q2 5 4 17q-17 6 -21.5 16.5t-6.5 35.5q-6 76 -10 119q-1 14 -7 83.5t-6 132.5q0 15 21.5 25.5t54.5 10.5q30 0 44 -10.5t14 -32.5l1 -255v-63q81 114 183.5 238t131.5 124q38 0 63 -11z" />
    <glyph glyph-name="uni1EF4" unicode="&#x1ef4;" horiz-adv-x="555" 
d="M578 649q25 -11 26 -25q-8 -12 -54 -65l-42 -47q-101 -120 -158.5 -182.5t-88.5 -84.5q-6 -4 -18 -9q-5 -37 -33 -151l-11 -44q-7 -29 -20.5 -39t-53.5 -10q-30 0 -43 10t-13 36q0 11 3 21l40 160q2 5 4 17q-17 6 -21.5 16.5t-6.5 35.5q-6 76 -10 119q-1 14 -7 83.5
t-6 132.5q0 15 21.5 25.5t54.5 10.5q30 0 44 -10.5t14 -32.5l1 -255v-63q81 114 183.5 238t131.5 124q38 0 63 -11zM139 -92.5q20 -21.5 20 -46.5q0 -32 -27 -54t-63 -22q-23 0 -44 18.5t-21 41.5q0 34 28 59t62 25q25 0 45 -21.5z" />
    <glyph glyph-name="Ygrave" unicode="&#x1ef2;" horiz-adv-x="555" 
d="M170 829q-14 13 -14 26q0 16 27 35t48 19q11 0 49.5 -29.5t78 -67.5t53.5 -59q3 -4 3 -12q0 -17 -9 -24t-28 -7q-26 0 -58 16.5t-93 59.5q-43 30 -57 43zM578 649q25 -11 26 -25q-8 -12 -54 -65l-42 -47q-101 -120 -158.5 -182.5t-88.5 -84.5q-6 -4 -18 -9
q-5 -37 -33 -151l-11 -44q-7 -29 -20.5 -39t-53.5 -10q-30 0 -43 10t-13 36q0 11 3 21l40 160q2 5 4 17q-17 6 -21.5 16.5t-6.5 35.5q-6 76 -10 119q-1 14 -7 83.5t-6 132.5q0 15 21.5 25.5t54.5 10.5q30 0 44 -10.5t14 -32.5l1 -255v-63q81 114 183.5 238t131.5 124
q38 0 63 -11z" />
    <glyph glyph-name="uni1EF6" unicode="&#x1ef6;" horiz-adv-x="555" 
d="M282.5 879q-7.5 10 -7.5 21q0 29 32.5 40t76.5 11q43 0 76 -19t33 -56q0 -38 -24 -60.5t-62 -37.5q-18 -7 -25 -17t-10 -20.5t-5 -16.5q-15 -27 -46 -27q-16 0 -25 5t-9 14q0 7 16 66q4 16 17 24t38 16t37 16.5t12 26.5q0 8 -8.5 15t-28.5 7q-21 0 -31.5 -4.5t-11.5 -5.5
t-8.5 -4.5t-18.5 -3.5q-10 0 -17.5 10zM578 649q25 -11 26 -25q-8 -12 -54 -65l-42 -47q-101 -120 -158.5 -182.5t-88.5 -84.5q-6 -4 -18 -9q-5 -37 -33 -151l-11 -44q-7 -29 -20.5 -39t-53.5 -10q-30 0 -43 10t-13 36q0 11 3 21l40 160q2 5 4 17q-17 6 -21.5 16.5
t-6.5 35.5q-6 76 -10 119q-1 14 -7 83.5t-6 132.5q0 15 21.5 25.5t54.5 10.5q30 0 44 -10.5t14 -32.5l1 -255v-63q81 114 183.5 238t131.5 124q38 0 63 -11z" />
    <glyph glyph-name="uni1EF8" unicode="&#x1ef8;" horiz-adv-x="555" 
d="M151 729.5q-5 10.5 -5 36.5q0 20 21 42t50.5 36.5t53.5 14.5q44 0 90 -35q19 -15 34 -21t32 -6q12 0 22 6.5t20 16t15 14.5q4 4 9 4q4 0 8 -5t5 -5q2 0 2 -9q0 -28 -19 -52.5t-44 -39.5t-40 -15q-23 0 -41.5 7.5t-44.5 24.5q-19 15 -33.5 21t-30.5 6q-33 0 -87 -59
q-12 7 -17 17.5zM578 649q25 -11 26 -25q-8 -12 -54 -65l-42 -47q-101 -120 -158.5 -182.5t-88.5 -84.5q-6 -4 -18 -9q-5 -37 -33 -151l-11 -44q-7 -29 -20.5 -39t-53.5 -10q-30 0 -43 10t-13 36q0 11 3 21l40 160q2 5 4 17q-17 6 -21.5 16.5t-6.5 35.5q-6 76 -10 119
q-1 14 -7 83.5t-6 132.5q0 15 21.5 25.5t54.5 10.5q30 0 44 -10.5t14 -32.5l1 -255v-63q81 114 183.5 238t131.5 124q38 0 63 -11z" />
    <glyph glyph-name="Z" unicode="Z" horiz-adv-x="594" 
d="M474 95.5q6 -13.5 6 -31.5q0 -28 -40 -47q-75 -10 -210 -19.5t-193 -10.5q-36 19 -36 48q0 12 12 27l209 258l192 237q-214 -6 -263 -38q-14 11 -22.5 31.5t-8.5 37.5q0 28 38 46q75 10 210 19.5t193 10.5q36 -19 36 -48q0 -12 -12 -27l-396 -490q176 11 260 24
q19 -14 25 -27.5zM145 44z" />
    <glyph glyph-name="Zacute" unicode="&#x179;" horiz-adv-x="594" 
d="M330 720q-9 7 -9 24q0 8 3 12q14 21 53.5 59t78 67.5t49.5 29.5q21 0 48 -19t27 -35q0 -13 -14 -26t-57 -43q-61 -43 -93 -59.5t-58 -16.5q-19 0 -28 7zM474 95.5q6 -13.5 6 -31.5q0 -28 -40 -47q-75 -10 -210 -19.5t-193 -10.5q-36 19 -36 48q0 12 12 27l209 258
l192 237q-214 -6 -263 -38q-14 11 -22.5 31.5t-8.5 37.5q0 28 38 46q75 10 210 19.5t193 10.5q36 -19 36 -48q0 -12 -12 -27l-396 -490q176 11 260 24q19 -14 25 -27.5zM145 44z" />
    <glyph glyph-name="Zcaron" unicode="&#x17d;" horiz-adv-x="594" 
d="M260 822q-10 13 -10 25q0 16 15.5 27.5t36.5 11.5q20 0 38 -21l55 -66q60 52 88.5 73t41.5 21q20 0 35.5 -9t15.5 -24q0 -11 -3.5 -20t-17.5 -20l-22 -18q-75 -62 -103 -83q-15 -12 -45 -12q-20 0 -35.5 9.5t-38.5 39.5zM474 95.5q6 -13.5 6 -31.5q0 -28 -40 -47
q-75 -10 -210 -19.5t-193 -10.5q-36 19 -36 48q0 12 12 27l209 258l192 237q-214 -6 -263 -38q-14 11 -22.5 31.5t-8.5 37.5q0 28 38 46q75 10 210 19.5t193 10.5q36 -19 36 -48q0 -12 -12 -27l-396 -490q176 11 260 24q19 -14 25 -27.5zM145 44z" />
    <glyph glyph-name="Zdotaccent" unicode="&#x17b;" horiz-adv-x="594" 
d="M305 723.5q-21 18.5 -21 41.5q0 34 28 59t62 25q25 0 45 -21.5t20 -46.5q0 -32 -27 -54t-63 -22q-23 0 -44 18.5zM474 95.5q6 -13.5 6 -31.5q0 -28 -40 -47q-75 -10 -210 -19.5t-193 -10.5q-36 19 -36 48q0 12 12 27l209 258l192 237q-214 -6 -263 -38q-14 11 -22.5 31.5
t-8.5 37.5q0 28 38 46q75 10 210 19.5t193 10.5q36 -19 36 -48q0 -12 -12 -27l-396 -490q176 11 260 24q19 -14 25 -27.5zM145 44z" />
    <glyph glyph-name="uni1E92" unicode="&#x1e92;" horiz-adv-x="594" 
d="M474 95.5q6 -13.5 6 -31.5q0 -28 -40 -47q-75 -10 -210 -19.5t-193 -10.5q-36 19 -36 48q0 12 12 27l209 258l192 237q-214 -6 -263 -38q-14 11 -22.5 31.5t-8.5 37.5q0 28 38 46q75 10 210 19.5t193 10.5q36 -19 36 -48q0 -12 -12 -27l-396 -490q176 11 260 24
q19 -14 25 -27.5zM145 44zM276 -92.5q20 -21.5 20 -46.5q0 -32 -27 -54t-63 -22q-23 0 -44 18.5t-21 41.5q0 34 28 59t62 25q25 0 45 -21.5z" />
    <glyph glyph-name="A.ss01" horiz-adv-x="650" 
d="M255.5 432q49.5 74 123.5 176q18 25 47 41t60 16q47 0 62 -12t15 -38l-1 -92q-2 -70 -2 -111q0 -127 9 -222q6 -81 20 -145q-1 -24 -17 -43.5t-40 -19.5q-46 0 -63 23t-22 78q-2 34 -2 139q-129 -21 -205 -40q-16 -31 -25 -49q-20 -41 -33.5 -65t-30.5 -42
q-20 -22 -32 -30.5t-30 -8.5q-30 0 -54 13.5t-25 27.5q1 0 17 31q7 12 52 92.5t83 131.5q44 75 93.5 149zM362 306l80 12q-2 70 -2 101q0 66 4 99q-22 -29 -59.5 -91.5t-76.5 -129.5q20 5 54 9z" />
    <glyph glyph-name="B.ss01" horiz-adv-x="641" 
d="M65 551q0 22 17 45q45 29 134.5 47.5t192.5 18.5q102 0 150 -40.5t48 -112.5q0 -60 -39 -94t-110 -53q66 -11 87 -53t21 -96q0 -75 -42.5 -129.5t-111 -82.5t-145.5 -28q-43 0 -92 11.5t-84.5 39t-35.5 70.5q0 14 3 27l102 412q-49 -19 -64 -43q-31 33 -31 61zM297 566
q-4 -21 -12 -49q-5 -23 -13 -55t-17 -74l15 1q75 6 137.5 33.5t62.5 71.5q0 33 -19.5 55t-64.5 22q-42 0 -89 -5zM183 90q29 -20 71 -20q45 0 86 15.5t66.5 45.5t25.5 71q0 39 -19.5 72t-59.5 33q-43 0 -113 -12q-27 -90 -57 -205z" />
    <glyph glyph-name="C.ss01" horiz-adv-x="624" 
d="M508 53.5q-41 -39.5 -105.5 -64.5t-145.5 -25q-122 0 -179 59.5t-57 152.5q0 133 55.5 243.5t151.5 174t211 63.5q46 0 84 -21t60 -60.5t22 -92.5q0 -30 -22.5 -51t-60.5 -21q-30 0 -40.5 16t-10.5 41l1 32q0 18 -20 35t-37 17q-55 0 -118 -53t-105.5 -141t-42.5 -189
q0 -46 36 -75t91 -29q31 0 70.5 16t50.5 40q1 3 10 25.5t27.5 42t40.5 19.5q51 0 69.5 -22t19.5 -48q-15 -45 -56 -84.5z" />
    <glyph glyph-name="D.ss01" horiz-adv-x="598" 
d="M203 627.5q95 21.5 165 21.5q72 0 121.5 -35t74 -92t24.5 -123q0 -111 -45 -206t-130 -152t-201 -57q-29 0 -71 7q-16 3 -35.5 30t-33.5 60.5t-14 52.5q0 11 3 21l92 356q-45 -13 -89 -44q-12 12 -18 30t-6 37q0 22 18 39q50 33 145 54.5zM232 89q75 0 127.5 43.5
t79 112.5t26.5 145q0 70 -31 110.5t-96 40.5q-28 0 -51 -4q-18 -81 -49 -205.5t-42 -171.5l-16 -65q24 -6 52 -6z" />
    <glyph glyph-name="E.ss01" horiz-adv-x="555" 
d="M605 628q0 -18 -19.5 -33.5t-43.5 -21.5l-42 -3q-29 -2 -79.5 -5.5t-122.5 -9.5l-36 -146q63 10 104.5 16t92.5 10q39 -17 39 -46q0 -18 -18 -35t-41 -24l-57 -6q-91 -10 -146 -20q-16 -70 -52 -203q135 25 257 35q39 -17 39 -46q0 -18 -18 -35t-41 -24
q-190 -22 -268 -37q-9 -6 -39 -6q-28 0 -49.5 26t-21.5 54q0 11 3 21l114 451h-3q-1 11 -14 27q-1 2 -8 12.5t-7 20.5q2 29 38 46q75 10 210 19.5t193 10.5q36 -19 36 -48z" />
    <glyph glyph-name="F.ss01" horiz-adv-x="545" 
d="M605 628q0 -18 -19.5 -33.5t-43.5 -21.5q-187 -12 -274 -21l-55 -218q79 13 123 17t54 5l25 2q39 -17 39 -46q0 -25 -22.5 -40t-51.5 -21q-24 -3 -70 -7q-12 -1 -48.5 -5t-74.5 -10l-48 -193q-5 -21 -10.5 -30.5t-19 -14t-40.5 -4.5q-31 0 -45.5 10.5t-14.5 35.5
q0 11 3 21l130 514q-14 22 -14 32q2 29 38 46q75 10 210 19.5t193 10.5q36 -19 36 -48z" />
    <glyph glyph-name="G.ss01" horiz-adv-x="623" 
d="M543.5 350.5q19.5 -14.5 24.5 -35t5 -52.5q0 -84 -46 -148.5t-120 -100t-157 -35.5q-120 0 -176 67t-56 164q0 118 46 222t119.5 166.5t151.5 62.5q73 0 125 -22t78 -57.5t26 -73.5q0 -31 -20 -48t-58 -17q-30 0 -42.5 22.5t-12.5 49.5q0 13 -15.5 27t-38.5 14
q-55 0 -110 -49.5t-90 -135t-35 -187.5q0 -47 33 -75.5t87 -28.5q39 0 84 24t76 64t31 86q-10 -1 -25 -6q-19 -6 -34.5 -9t-42.5 -3q-32 0 -47.5 8.5t-15.5 30.5q0 15 7.5 35t18.5 29q49 13 85 19.5t84 6.5q41 0 60.5 -14.5z" />
    <glyph glyph-name="H.ss01" horiz-adv-x="708" 
d="M36 275q-12 11 -12 27q0 28 15.5 43.5t62.5 23.5l53 216q11 44 23.5 58.5t45.5 14.5q27 0 49.5 -6t23.5 -18l-8 -34q-19 -68 -52 -211q148 30 281 41l51 209q4 17 22.5 23t45.5 6q31 0 42.5 -6.5t16.5 -18.5q-17 -55 -139 -592q-14 -55 -44 -55q-92 0 -92 43q1 8 6 25.5
t10 39.5q40 151 55 221q-197 -24 -279 -42l-61 -247q-7 -29 -20.5 -39t-53.5 -10q-31 0 -45.5 10.5t-14.5 35.5q0 11 3 21l52 206q-25 4 -37 15z" />
    <glyph glyph-name="I.ss01" horiz-adv-x="308" 
d="M192.5 662q18.5 6 45.5 6q31 0 42.5 -6.5t16.5 -18.5q-17 -55 -139 -592q-14 -55 -44 -55q-92 0 -92 43q0 4 24 98q83 327 124 502q4 17 22.5 23z" />
    <glyph glyph-name="J.ss01" horiz-adv-x="469" 
d="M393.5 652.5q15.5 4.5 29.5 4.5q25 0 45 -12t22 -23q0 -25 -36 -173t-71 -286q-19 -72 -73.5 -118.5t-143.5 -46.5q-73 0 -115.5 27.5t-59 65.5t-16.5 75q0 58 14.5 84.5t50.5 26.5q33 0 43 -7.5t10 -24.5q0 -5 -5 -33q-6 -24 -6 -34q1 -47 21.5 -65t57.5 -18q27 0 55 21
t43 77l117 448q2 7 17.5 11.5z" />
    <glyph glyph-name="K.ss01" horiz-adv-x="608" 
d="M622 590l-297 -267q19 -38 99 -133.5t126 -139.5q4 -4 12 -19.5t8 -21.5q0 -10 -10.5 -20t-34.5 -10q-41 0 -49 5q-34 24 -90.5 80t-107.5 119.5t-71 109.5l-13 -53q-12 -47 -43 -173l-5 -21q-7 -28 -21.5 -38t-55.5 -10q-31 0 -45.5 10t-14.5 35q0 11 3 21
q144 541 144 556q5 21 21.5 32t50.5 11q29 0 39.5 -12.5t10.5 -36.5q0 -15 -1 -24q-1 -15 -39 -172l-7 -30q49 49 157.5 143.5t150.5 126.5q6 1 21 2t29 1q23 0 32 -11q6 -7 9 -12.5t3 -13.5q0 -13 -11 -34z" />
    <glyph glyph-name="L.ss01" horiz-adv-x="462" 
d="M443.5 125.5q10.5 -15.5 10.5 -31.5q0 -18 -18 -35t-41 -24q-53 -6 -129 -17.5t-133 -23.5q-9 -6 -39 -6q-28 0 -49.5 26t-21.5 54q0 11 3 21l126 493q11 44 23.5 58.5t45.5 14.5q27 0 46.5 -6t20.5 -18l-126 -523q168 33 255 40q16 -7 26.5 -22.5z" />
    <glyph glyph-name="M.ss01" horiz-adv-x="855" 
d="M825.5 656.5q11.5 -4.5 15.5 -13.5q-21 -81 -55 -229.5t-46 -199.5q-22 -102 -41 -181q-14 -55 -44 -55q-92 0 -92 43q0 -13 23 94t28 130l22 104l-222 -324q-16 -20 -47 -20q-26 0 -48.5 13t-19.5 26q-7 34 -26 129.5t-39 199.5l-84 -337q-7 -29 -21.5 -39t-54.5 -10
q-31 0 -45.5 10.5t-14.5 35.5q0 11 3 21l137 541q11 44 23.5 58.5t45.5 14.5q27 0 48 -6t22 -18v-2l92 -497l317 480q10 22 22.5 29t28.5 9.5t24 4.5q37 -7 48.5 -11.5zM563 21z" />
    <glyph glyph-name="N.ss01" horiz-adv-x="703" 
d="M657.5 660q31.5 -11 34.5 -17q-21 -81 -55 -229.5t-46 -199.5q-22 -102 -41 -181q-14 -55 -44 -55q-79 0 -90 32l-2 -2l-173 439l-69 -283l-32 -128q-7 -29 -21.5 -39t-54.5 -10q-31 0 -45.5 10.5t-14.5 35.5q0 11 3 21l137 541q11 44 23.5 58.5t45.5 14.5q27 0 48 -6
t22 -18v-2l170 -450l102 447q0 32 44 32q27 0 58.5 -11zM282 645z" />
    <glyph glyph-name="O.ss01" horiz-adv-x="648" 
d="M567 211.5q-38 -106.5 -112 -169.5t-177 -63q-80 0 -138.5 36t-89.5 101t-31 149q0 109 47 202t131 148t189 55q59 0 112.5 -10t53.5 -35q0 -10 -7.5 -28.5t-16.5 -24.5q23 -2 40.5 -24.5t27 -51.5t9.5 -49q0 -129 -38 -235.5zM462.5 477.5q-9.5 14.5 -25.5 29.5l-8 8
t-6 11q0 4 2.5 11t2.5 10q0 5 -18.5 10.5t-40.5 5.5q-63 0 -112 -53.5t-75.5 -134t-26.5 -157.5q0 -45 16.5 -79t43 -52t55.5 -18q49 0 96 55t76.5 141t29.5 175q0 23 -9.5 37.5z" />
    <glyph glyph-name="P.ss01" horiz-adv-x="587" 
d="M38.5 572.5q8.5 8.5 23.5 15.5q146 76 304 76q61 0 108.5 -23.5t74 -67t26.5 -100.5q0 -95 -50 -160t-130.5 -96.5t-173.5 -31.5q-28 0 -41 1q-25 -92 -33 -126q-8 -35 -24.5 -54t-53.5 -19q-31 0 -45.5 10.5t-14.5 35.5q0 11 3 21l121 467q-52 -15 -79 -41
q-11 12 -17.5 31.5t-6.5 38.5q0 14 8.5 22.5zM235 278q54 0 106 21.5t86 64.5t34 104q0 44 -31 69t-87 25q-30 0 -77 -14q-46 -184 -65 -269q12 -1 34 -1z" />
    <glyph glyph-name="Q.ss01" horiz-adv-x="648" 
d="M623 -21q0 -26 -15.5 -41.5t-43.5 -15.5q-17 0 -53 29t-79 74q-67 -46 -154 -46q-80 0 -138.5 36t-89.5 101t-31 149q0 109 47 202t131 148t189 55q59 0 112.5 -10t53.5 -35q0 -10 -7.5 -28.5t-16.5 -24.5q23 -2 40.5 -24.5t27 -51.5t9.5 -49q0 -102 -24.5 -192
t-71.5 -154q114 -101 114 -122zM355 112q-46 60 -46 77q0 27 10.5 37.5t34.5 10.5q-2 0 55 -49q29 54 46 120t17 132q0 23 -9.5 37.5t-25.5 29.5l-8 8t-6 11q0 4 2.5 11t2.5 10q0 5 -18.5 10.5t-40.5 5.5q-63 0 -112 -53.5t-75.5 -134t-26.5 -157.5q0 -45 16.5 -79t43 -52
t55.5 -18q42 0 85 43z" />
    <glyph glyph-name="R.ss01" horiz-adv-x="607" 
d="M518.5 349q-56.5 -54 -144.5 -78l59 -82q76 -104 97 -135.5t21 -44.5q0 -11 -17 -17q-6 -2 -19.5 -7.5t-24.5 -7.5t-25 -2q-21 0 -32 5l-180 273h-15q-28 0 -41 1q-30 -111 -50 -194q-8 -35 -24.5 -54t-53.5 -19q-31 0 -45.5 10.5t-14.5 35.5q0 11 3 21l121 467
q-52 -15 -79 -41q-11 12 -17.5 31.5t-6.5 38.5q0 31 59 57t140 41.5t137 15.5q64 0 111.5 -25.5t72.5 -65.5t25 -81q0 -89 -56.5 -143zM218 347q12 -1 34 -1q48 0 96 14.5t80.5 43.5t32.5 72q0 39 -32 62.5t-86 23.5q-30 0 -77 -14q-29 -116 -48 -201z" />
    <glyph glyph-name="S.ss01" horiz-adv-x="628" 
d="M258.5 404.5q22.5 -16.5 69.5 -36.5l36 -15l30 -14q54 -24 85.5 -43.5t53.5 -53.5t22 -87q0 -57 -37.5 -98.5t-104.5 -63t-156 -21.5q-66 0 -123.5 20.5t-91 51.5t-33.5 61q0 29 25 47.5t71 25.5q5 -29 34 -52t67.5 -36.5t67.5 -13.5q53 0 94.5 21t41.5 58
q0 31 -29.5 51.5t-88.5 44.5l-53 24q-65 32 -103 72t-38 106q0 59 32.5 105.5t95 73t148.5 26.5q66 0 118 -20t81 -51t29 -62q0 -28 -22.5 -44.5t-53.5 -16.5q-12 0 -17 5.5t-7 12t-4 9.5q-19 32 -50.5 47.5t-68.5 15.5q-66 0 -104.5 -30t-38.5 -72q0 -31 22.5 -47.5z" />
    <glyph glyph-name="T.ss01" horiz-adv-x="531" 
d="M249.5 11q-16.5 -19 -53.5 -19q-31 0 -45.5 10.5t-14.5 35.5q0 11 3 21l120 479q-1 0 -65 -7q-77 -6 -96 -10q-20 7 -30.5 21.5t-10.5 34.5q0 16 11.5 30.5t27.5 21.5q80 16 343 28q73 3 100 6q16 -7 27.5 -21.5t11.5 -30.5q0 -18 -18 -35t-41 -24l-131 -5l-114 -482
q-8 -35 -24.5 -54z" />
    <glyph glyph-name="U.ss01" horiz-adv-x="654" 
d="M118.5 649.5q12.5 14.5 45.5 14.5q38 0 54 -11t16 -33q0 -14 -6 -34l-93 -378l-1 -14q0 -58 37 -86t83 -28q62 0 96.5 22t48 52.5t25.5 79.5q5 18 40 178q45 199 49 213q7 20 24.5 29.5t39.5 9.5t40 -17.5t18 -46.5v-4l-79 -365q-19 -88 -52.5 -142t-96.5 -82t-167 -28
q-70 0 -123.5 27.5t-83.5 77.5t-30 113q0 32 9 66l83 328q11 44 23.5 58.5z" />
    <glyph glyph-name="V.ss01" horiz-adv-x="594" 
d="M139.5 13.5q-21.5 22.5 -31.5 71.5q-19 88 -31 224.5t-12 293.5q0 23 22 39.5t54 16.5q30 0 44 -16.5t14 -50.5l-1 -159v-60q0 -90 5 -158.5t20 -123.5q25 50 80 171q96 207 154.5 320.5t81.5 113.5q37 0 60 -17t24 -40q-7 -17 -52 -93q-47 -80 -68 -117
q-62 -116 -129 -260q-32 -68 -49 -101t-33 -50q-12 -14 -36.5 -23.5t-53.5 -9.5q-41 6 -62.5 28.5z" />
    <glyph glyph-name="W.ss01" horiz-adv-x="784" 
d="M293.5 130.5q-43.5 -72.5 -90 -110.5t-86.5 -38q-92 0 -92 189q0 116 28 230.5t62 196.5q10 26 26 41.5t45 15.5q27 0 43 -13.5t16 -40.5l-1 -12q0 -2 -12 -33q-30 -81 -53.5 -155t-29.5 -141q-3 -34 -3 -67t7 -53.5t20 -20.5q29 0 73 84t84.5 201t58.5 203q4 19 23 32
t33 13q25 0 36.5 -12.5t11.5 -38.5l-1 -14q0 -3 -5 -26q-20 -106 -34 -189.5t-20 -153.5q-1 -8 -1 -24q0 -34 9.5 -54.5t24.5 -20.5q49 0 102 156.5t91 334.5q4 18 17.5 26.5t32.5 8.5q24 0 49 -10t25 -22l-16 -70q-36 -159 -75 -277.5t-101 -201t-148 -82.5q-84 0 -84 154
q0 97 13 165h-4q-31 -98 -74.5 -170.5z" />
    <glyph glyph-name="X.ss01" horiz-adv-x="660" 
d="M633 616q0 -13 -1 -18l-2 -11q-1 -8 -6.5 -13t-21.5 -14q-4 -3 -16 -10t-22 -16q-14 -12 -63.5 -71.5t-65.5 -78.5l-50 -61q10 -14 71 -91l55 -72q74 -100 73 -126q0 -16 -13 -29q-17 -15 -38 -15q-24 0 -70 46q-73 71 -162 185q-82 -98 -133.5 -156t-71.5 -72
q-24 -15 -45 -15q-6 0 -9 2t-8 8t-13 12q-21 16 -21 34v4q3 11 6 15l21 18q23 20 72.5 78.5t133.5 161.5q-132 184 -141 263q-1 5 -1 15q0 18 4.5 26.5t14.5 12.5q39 17 68 17q40 0 51 -32q0 -6 2 -18q7 -62 87 -179q136 167 178 208q50 48 83 48q54 0 54 -56z" />
    <glyph glyph-name="Y.ss01" horiz-adv-x="555" 
d="M557 632q25 -11 26 -25q-35 -51 -105 -132t-136.5 -150.5t-80.5 -79.5q-6 -4 -18 -9q-5 -37 -33 -151l-11 -44q-7 -29 -20.5 -39t-53.5 -10q-30 0 -43 10t-13 36q0 11 3 21l40 160l5 20q-27 20 -30 51q-4 57 -5 89q-10 166 -17 244q-2 15 16 25.5t50 10.5q30 0 40.5 -9
t10.5 -32q0 -51 4 -153t14 -167q90 126 177.5 235.5t116.5 109.5q38 0 63 -11z" />
    <glyph glyph-name="Z.ss01" horiz-adv-x="577" 
d="M558 595l-373 -497q192 14 264 25q19 -14 25 -27.5t6 -31.5q0 -28 -40 -47q-75 -10 -210 -19.5t-193 -10.5q-36 19 -36 48q0 11 10 24l377 499l-271 -30q-14 11 -21.5 27t-7.5 32q0 28 38 46q75 10 210 19.5t193 10.5q36 -19 36 -48q0 -11 -8 -19zM145 44z" />
    <glyph glyph-name="A.ss02" horiz-adv-x="650" 
d="M358 588q23 33 51.5 55t70.5 22q47 0 62 -12t16 -38q2 -132 12.5 -296.5t22.5 -275.5q-1 -22 -19.5 -41t-42.5 -19q-31 0 -45.5 6t-18 16t-6.5 33q-6 61 -8 175q-22 -3 -66 -7t-69 -6l-53 -4q-24 -48 -55 -103t-52 -89q-14 -20 -28.5 -29.5t-33.5 -9.5q-28 0 -46.5 14.5
t-17.5 36.5q1 11 72 132q13 23 17 30q-2 -1 -7 -1.5t-7 -0.5q-19 1 -29.5 11.5t-10.5 24.5q0 18 13.5 33.5t36.5 20.5l47 6q116 204 194 316zM414 470q-56 -96 -100 -181q45 5 138 14q-2 88 -2 230z" />
    <glyph glyph-name="B.ss02" horiz-adv-x="641" 
d="M127 511q-18 0 -30 11t-12 30q0 33 43.5 58t116 38.5t157.5 13.5q98 0 142.5 -39.5t44.5 -108.5q0 -62 -34.5 -102.5t-98.5 -58.5q115 -33 115 -138q0 -82 -42 -136t-112 -80t-157 -26q-86 0 -140 41t-55 110q0 18 3 27l82 367q-8 -7 -23 -7zM337 402.5q49 8.5 89 30.5
t40 60q0 35 -24 56.5t-62 21.5q-42 0 -89 -5l-36 -172q33 0 82 8.5zM282 300q-24 0 -46 -3l-43 -177q18 -24 38 -34t46 -10q37 0 74 17.5t61 48t25 67.5q0 91 -155 91z" />
    <glyph glyph-name="C.ss02" horiz-adv-x="598" 
d="M543 233q11 -14 11 -39q0 -48 -36 -101t-104.5 -89.5t-158.5 -36.5q-69 0 -119.5 37t-77 95t-26.5 118q0 131 47 231t132.5 154.5t199.5 54.5q46 0 85 -21t61.5 -60.5t22.5 -92.5q0 -31 -22.5 -51.5t-59.5 -20.5q-30 0 -40.5 15.5t-11.5 41.5l1 32q-1 18 -21 35t-37 17
q-54 0 -107.5 -46t-87.5 -123.5t-34 -167.5q0 -29 16.5 -59.5t44 -50.5t58.5 -20q36 0 63 16t45.5 37.5t41.5 55.5q16 23 25.5 35.5t20.5 19.5q2 1 7 1q6 0 15 -1.5t12 -1.5q23 0 34 -14z" />
    <glyph glyph-name="D.ss02" horiz-adv-x="598" 
d="M126 510q-19 0 -31 8.5t-12 26.5q0 51 74.5 77.5t203.5 26.5q71 0 120.5 -42t74 -108.5t24.5 -139.5q0 -109 -42 -195t-124 -136t-197 -50q-78 0 -116.5 31t-38.5 113q0 37 8 65l79 330q-8 -7 -23 -7zM208.5 91.5q13.5 -8.5 26.5 -8.5q74 0 124.5 37.5t74.5 99t24 136.5
q0 80 -30.5 135.5t-93.5 55.5q-28 0 -51 -4q-45 -211 -94 -426q6 -17 19.5 -25.5z" />
    <glyph glyph-name="E.ss02" horiz-adv-x="555" 
d="M144 567q-1 2 -8 12.5t-8 20.5q2 29 37 46q75 10 210 19.5t193 10.5q37 -19 37 -48q0 -18 -19 -33.5t-43 -21.5l-44 -3q-31 -2 -81.5 -5.5t-119.5 -9.5q-14 -70 -33 -146q64 10 105.5 16t91.5 10q40 -16 40 -47q0 -18 -17.5 -34.5t-40.5 -23.5l-56 -6q-90 -10 -146 -20
l-38 -149q-1 -6 -2 -14.5t-1 -14.5q0 -29 50 -29q35 0 69 5.5t88 16.5l36 7q15 -7 27 -24t12 -33q0 -18 -18 -35t-40 -24q-54 -12 -118 -21t-120 -9q-52 0 -90 24t-38 80q0 23 7 53l93 403q-1 9 -15 27z" />
    <glyph glyph-name="F.ss02" horiz-adv-x="545" 
d="M599 628q0 -18 -19.5 -33.5t-42.5 -21.5q-189 -13 -274 -21q-10 -41 -19 -80t-17 -72l-15 -66q80 13 123 17t53 5l25 2q40 -16 41 -46q0 -25 -22.5 -40t-50.5 -21q-24 -3 -70 -7q-67 -5 -123 -15l-45 -193q-4 -21 -9.5 -30.5t-19 -14t-40.5 -4.5q-31 0 -45.5 10.5
t-15.5 35.5q0 11 3 21l122 514q-16 20 -16 32q2 29 37 46q75 10 209.5 19.5t193.5 10.5q37 -19 37 -48z" />
    <glyph glyph-name="G.ss02" horiz-adv-x="623" 
d="M551 344.5q18 -20.5 18 -56.5q0 -10 -2 -30q-8 -97 -57.5 -159.5t-123.5 -91t-160 -28.5q-75 0 -123 41t-69.5 102.5t-21.5 124.5q0 96 47 192.5t131 159t187 62.5t150.5 -43.5t47.5 -111.5q0 -29 -22 -46t-60 -17q-51 0 -51 73q0 13 -14 26.5t-37 13.5q-73 0 -131.5 -43
t-91 -113t-32.5 -147q0 -33 14 -71.5t39 -65t57 -26.5q75 0 135 37.5t69 134.5q-14 -1 -62 -12l-70 -14l-16 -2q-9 0 -14.5 11.5t-5.5 28.5q0 24 9 42t23 23q43 14 80.5 20t89.5 6q49 0 67 -20.5z" />
    <glyph glyph-name="H.ss02" horiz-adv-x="708" 
d="M185.5 662q18.5 6 45.5 6q32 0 43.5 -6.5t15.5 -18.5q-7 -24 -58 -260q170 27 278 40l47 216q4 17 22.5 23t45.5 6q32 0 43.5 -6.5t15.5 -18.5q-6 -25 -61 -282q-55 -259 -67 -310q-14 -55 -43 -55q-93 0 -93 43l12 49q7 33 20.5 88t33.5 141q-82 -9 -231 -34
q-34 -6 -46 -8q-13 -60 -14 -66q-23 -117 -33 -158q-5 -23 -15 -39t-28 -16q-93 0 -93 43l14 62q15 57 43 181q-6 9 -6 22t6 25.5t16 20.5l64 289q4 17 22.5 23z" />
    <glyph glyph-name="I.ss02" horiz-adv-x="308" 
d="M185.5 662q18.5 6 45.5 6q32 0 43.5 -6.5t15.5 -18.5q-9 -34 -53 -238.5t-75 -353.5q-14 -55 -43 -55q-93 0 -93 43q0 4 22 97q64 271 115 503q4 17 22.5 23z" />
    <glyph glyph-name="J.ss02" horiz-adv-x="469" 
d="M346 554q0 7 -8 31q-1 4 -5 17t-4 24q0 34 50 34q35 0 65 -13.5t34 -53.5q0 -25 -32.5 -171.5t-63.5 -276.5q-17 -72 -71 -118.5t-143 -46.5q-73 0 -120.5 28t-69 67t-21.5 73q0 56 22 83.5t58 27.5q17 0 30 -36t13 -63q0 -47 21.5 -65t59.5 -18q28 0 56 21.5t41 76.5
q88 375 88 379z" />
    <glyph glyph-name="K.ss02" horiz-adv-x="602" 
d="M581 560l-257 -237q25 -48 96.5 -152.5t109.5 -140.5q4 -4 14.5 -30t11.5 -32q-1 -10 -11 -20t-34 -10q-41 0 -49 5q-31 22 -83.5 86.5t-101.5 139t-70 124.5q-38 -161 -52 -226l-5 -21q-6 -28 -21 -38t-56 -10q-30 0 -44.5 10t-15.5 35q0 14 3 21q134 542 134 556
q5 21 21 32t50 11q29 0 40 -12.5t11 -36.5q0 -15 -1 -24q-1 -21 -43 -202q42 44 134 125t135 115q6 1 21 2t29 1q23 0 32 -11q13 -13 13 -26t-11 -34z" />
    <glyph glyph-name="L.ss02" horiz-adv-x="462" 
d="M161.5 627.5q6.5 14.5 18 21t34.5 6.5q27 0 46.5 -6t20.5 -18l-93 -409l-1 -5q-9 -36 -9 -57q0 -56 47 -56q35 0 69 5.5t88 16.5l36 7q15 -7 27 -24t12 -33q0 -18 -18 -35t-40 -24q-54 -12 -118 -21t-120 -9q-53 0 -84 37.5t-31 105.5q0 21 3 45q4 27 10 53l88 354
q8 31 14.5 45.5z" />
    <glyph glyph-name="M.ss02" horiz-adv-x="808" 
d="M764 671.5q24 -12.5 24 -51.5q0 -5 -2 -21q-21 -136 -91 -433l-25 -111q-5 -23 -15 -39t-28 -16q-44 0 -66.5 11.5t-22.5 38.5q0 4 5 33q32 169 72 356l-174 -260q-16 -20 -47 -20q-61 0 -70 30q-10 33 -38 141q-10 36 -20 73.5t-20 74.5q-31 -96 -46.5 -215.5
t-17.5 -226.5q-1 -28 -17 -38.5t-58 -10.5q-31 0 -46 10.5t-15 35.5q0 62 20 217.5t64.5 286.5t113.5 131q27 0 48 -6t23 -18l95 -345q102 164 158 246t82.5 110.5t43.5 28.5q46 0 70 -12.5z" />
    <glyph glyph-name="N.ss02" horiz-adv-x="703" 
d="M199.5 262.5q-15.5 -119.5 -17.5 -226.5q-1 -28 -17 -38.5t-58 -10.5q-31 0 -46 10.5t-15 35.5q0 62 20 217.5t64.5 286.5t113.5 131q27 0 48 -6t23 -18q-1 0 142 -438l91 433q0 32 44 32q25 0 49.5 -26t34.5 -44q-17 -69 -42 -189t-33 -156q-32 -156 -47 -223
q-14 -55 -43 -55q-67 0 -93 30l-172 470q-31 -96 -46.5 -215.5z" />
    <glyph glyph-name="O.ss02" horiz-adv-x="648" 
d="M510 82q-84 -103 -238 -103q-79 0 -136.5 35.5t-88 100t-30.5 150.5q0 115 37.5 202.5t115.5 137.5t194 50q43 0 85 -16.5t68.5 -43t26.5 -55.5q0 -15 -5 -29q34 -4 47 -38.5t13 -105.5q-5 -182 -89 -285zM459 421.5q-7 15.5 -16.5 27t-9.5 16.5q1 5 3 11t2 10
t-12.5 20.5t-29 29.5t-30.5 13q-64 0 -112.5 -38.5t-74.5 -104.5t-26 -146q0 -46 17 -86.5t46.5 -64.5t66.5 -24q50 0 90.5 36t65.5 102t27 154q0 29 -7 44.5z" />
    <glyph glyph-name="P.ss02" horiz-adv-x="573" 
d="M305 658q90 0 149.5 -24.5t88 -65t28.5 -90.5q0 -155 -94.5 -224t-253.5 -69q-28 0 -41 1l-34 -135q-8 -33 -22 -48.5t-52 -15.5q-31 0 -45.5 10.5t-15.5 35.5q0 11 3 21l115 483q-1 9 -15 27q-1 2 -8 12.5t-8 20.5q2 29 37 46q93 15 168 15zM240 295q85 0 141.5 43.5
t56.5 130.5q0 42 -34 63t-90 21q-25 0 -53 -5q-7 -42 -31 -144q-10 -44 -24 -108q12 -1 34 -1z" />
    <glyph glyph-name="Q.ss02" horiz-adv-x="648" 
d="M612.5 -62.5q-15.5 -15.5 -43.5 -15.5q-17 0 -54 29t-80 74q-66 -46 -153 -46q-81 0 -141 37t-91.5 103t-31.5 152q0 108 46 199.5t128.5 145.5t186.5 54q59 0 112 -10t54 -35q1 -9 -6.5 -28t-16.5 -25q23 -2 41 -24.5t28 -51.5t11 -49q2 -102 -21.5 -192t-68.5 -154
q115 -102 115 -122q1 -26 -14.5 -41.5zM357 112q-47 59 -47 77q-1 27 9.5 37.5t34.5 10.5q-3 0 56 -49q27 54 43 118t16 129q0 25 -10 41t-27 31q-14 12 -14 19q0 3 2.5 10t1.5 11q1 5 -17.5 10.5t-40.5 5.5q-63 0 -111 -53.5t-73.5 -134t-23.5 -157.5q0 -45 17 -79t44 -52
t56 -18q43 0 84 43z" />
    <glyph glyph-name="R.ss02" horiz-adv-x="596" 
d="M450 123q48 -64 80 -93q4 -4 14.5 -30t11.5 -32q-1 -10 -11 -20t-34 -10q-41 0 -49 5q-48 34 -115.5 121.5t-99.5 160.5h-15q-28 0 -41 1l-43 -175q-8 -33 -22 -48.5t-52 -15.5q-31 0 -45.5 10.5t-15.5 35.5q0 11 3 21l115 483q-1 9 -15 27q-1 2 -8 12.5t-8 20.5
q2 29 37 46q93 15 168 15q90 0 149.5 -24.5t88 -65t28.5 -90.5q0 -90 -54 -150.5t-149 -86.5q34 -54 82 -118zM249 335q52 0 95 17t68.5 47.5t25.5 69.5q0 42 -34 63t-90 21q-25 0 -53 -5q-6 -33 -25 -119l-21 -93q12 -1 34 -1z" />
    <glyph glyph-name="S.ss02" horiz-adv-x="534" 
d="M233.5 404.5q19.5 -16.5 60.5 -36.5l30 -15q53 -29 83 -51t51.5 -59t21.5 -91q0 -56 -34.5 -96.5t-95 -62t-135.5 -21.5q-56 0 -104.5 20.5t-77.5 52t-29 62.5q0 28 21 46t60 25q5 -29 29.5 -52t56.5 -36.5t57 -13.5q45 0 79.5 21t34.5 58q-1 35 -24 56.5t-74 49.5
l-25 14q-41 24 -69 45t-48.5 55t-20.5 81q0 57 31 103t87 72.5t128 26.5q56 0 100.5 -20t69.5 -51.5t25 -63.5q0 -27 -18.5 -43t-43.5 -16q-11 0 -15.5 5.5t-6.5 12t-3 9.5q-16 32 -43.5 47.5t-58.5 15.5q-56 0 -88 -30t-32 -72q1 -31 20.5 -47.5z" />
    <glyph glyph-name="T.ss02" horiz-adv-x="496" 
d="M199 -5q-16 -19 -53 -19q-31 0 -45.5 10.5t-15.5 35.5q0 11 3 21l116 495q-12 -2 -58 -6q-69 -6 -81 -9q-20 7 -30.5 22t-11.5 34q0 16 11.5 30.5t27.5 21.5q81 16 342 28q73 3 99 6q16 -7 28 -22t12 -31q0 -18 -17.5 -34.5t-40.5 -23.5l-152 -7l-111 -498
q-7 -35 -23 -54z" />
    <glyph glyph-name="U.ss02" horiz-adv-x="634" 
d="M111.5 649.5q12.5 14.5 45.5 14.5q38 0 54 -10.5t17 -33.5q0 -12 -5 -34l-87 -378l-1 -14q1 -59 34.5 -86.5t77.5 -27.5q123 0 157 154q4 19 35 166q44 213 48 225q6 20 23.5 29.5t39.5 9.5t40.5 -17.5t18.5 -46.5v-4l-73 -365q-18 -88 -53 -142.5t-99.5 -82
t-169.5 -27.5q-102 0 -155 59t-55 159q0 29 8 66l77 328q10 44 22.5 58.5z" />
    <glyph glyph-name="V.ss02" horiz-adv-x="594" 
d="M140 14q-25 23 -36 71q-20 86 -32 222t-12 296q0 23 21.5 39.5t53.5 16.5q30 0 44 -16.5t14 -50.5l1 -92l3 -127q2 -74 7.5 -143t14.5 -111q1 1 51 110q79 170 132.5 275.5t85.5 139.5q5 5 18 8.5t19 3.5q38 0 65.5 -17t29.5 -39q-9 -28 -22 -46t-36 -43
q-22 -24 -35 -40.5t-26 -41.5q-55 -103 -123 -256q-34 -74 -50 -106t-32 -49q-11 -14 -35.5 -23.5t-53.5 -9.5q-42 6 -67 29z" />
    <glyph glyph-name="W.ss02" horiz-adv-x="799" 
d="M306 130.5q-38 -72.5 -81.5 -110.5t-83.5 -38q-69 0 -89 82t-20 168q0 170 61 366q8 26 22.5 41.5t43.5 15.5q26 0 44.5 -16.5t18.5 -49.5q-4 -7 -22 -75t-33 -147t-15 -136q0 -49 9 -80.5t26 -31.5q29 0 66.5 84t69.5 201t43 203q2 13 17 23t33 16t27 6q26 0 38.5 -14.5
t13.5 -50.5l-3 -24q-1 -11 -14.5 -128.5t-13.5 -216.5q0 -45 11.5 -72t29.5 -27q48 0 90 158.5t66 332.5q4 35 47 35q24 0 50 -10t27 -22l-11 -70q-26 -164 -55.5 -280t-85 -198.5t-141.5 -82.5q-71 0 -98 77.5t-27 167.5q0 42 4 74h-4q-23 -98 -61 -170.5z" />
    <glyph glyph-name="X.ss02" horiz-adv-x="660" 
d="M634 593q0 -13 -1 -18l-1 -11q-1 -8 -7 -13.5t-21 -13.5q-3 -2 -15 -9t-22 -17q-24 -24 -147 -166l-32 -37q56 -72 128 -152q21 -23 46.5 -64t25.5 -58t-13 -29q-15 -15 -37 -15q-25 0 -71 46q-75 71 -161 176q-186 -214 -224 -240q-24 -15 -45 -15q-6 0 -9 2t-8 8
t-13 12q-22 17 -22 34v4q3 11 6 15l21 18q43 39 223 251q-71 94 -114.5 174t-43.5 130q0 14 3.5 23t14.5 14q36 17 68 17q39 0 51 -32q0 -6 2 -18q11 -77 103 -209q141 165 178 201q48 48 82 48q55 0 55 -56z" />
    <glyph glyph-name="Y.ss02" horiz-adv-x="555" 
d="M351 320q-91 -112 -99 -122l-27 -157q-3 -20 -9 -30t-20 -14.5t-41 -4.5q-31 0 -45.5 10.5t-14.5 35.5q0 16 24 181l-84 409q0 13 16.5 22t45.5 9q36 0 52 -5.5t17 -25.5l54 -309q197 324 243 324q22 0 44 -10t36.5 -24t15.5 -23q-53 -78 -208 -266z" />
    <glyph glyph-name="Z.ss02" horiz-adv-x="577" 
d="M466 70q0 -15 -10.5 -29t-29.5 -24q-76 -10 -211.5 -19.5t-193.5 -10.5q-33 19 -33 50q0 6 11.5 29.5t17.5 28.5l397 453l-264 -18q-52 6 -52 57q0 28 39 46q76 10 211.5 19.5t193.5 10.5q14 -8 21.5 -23t7.5 -46v-15q-1 -11 -164 -201q-164 -192 -233 -280
q208 16 264 25q28 -22 28 -53z" />
    <glyph glyph-name="a" unicode="a" horiz-adv-x="502" 
d="M409 5q-2 -6 -17.5 -12t-26.5 -6q-36 0 -51.5 10.5t-15.5 31.5q0 20 4 40q-22 -30 -64.5 -49.5t-68.5 -19.5q-67 0 -111.5 39t-44.5 125q0 81 38.5 152.5t106.5 115t151 43.5q16 0 42 -8.5t52.5 -29t44.5 -52.5q8 0 19 -8t11 -16q0 -9 -3 -18l-73 -291q2 -26 7 -47z
M333.5 369q-17.5 15 -31.5 15q-46 0 -86.5 -32.5t-65.5 -80.5t-25 -91q0 -42 10 -69t39 -27q25 0 57.5 15t58 40.5t33.5 53.5l34 139q-6 22 -23.5 37z" />
    <glyph glyph-name="aacute" unicode="&#xe1;" horiz-adv-x="502" 
d="M260.5 644q39.5 38 78 67.5t49.5 29.5q21 0 48 -19t27 -35q0 -13 -14 -26t-57 -43q-61 -43 -93 -59.5t-58 -16.5q-19 0 -28 7t-9 24q0 8 3 12q14 21 53.5 59zM409 5q-2 -6 -17.5 -12t-26.5 -6q-36 0 -51.5 10.5t-15.5 31.5q0 20 4 40q-22 -30 -64.5 -49.5t-68.5 -19.5
q-67 0 -111.5 39t-44.5 125q0 81 38.5 152.5t106.5 115t151 43.5q16 0 42 -8.5t52.5 -29t44.5 -52.5q8 0 19 -8t11 -16q0 -9 -3 -18l-73 -291q2 -26 7 -47zM333.5 369q-17.5 15 -31.5 15q-46 0 -86.5 -32.5t-65.5 -80.5t-25 -91q0 -42 10 -69t39 -27q25 0 57.5 15t58 40.5
t33.5 53.5l34 139q-6 22 -23.5 37z" />
    <glyph glyph-name="abreve" unicode="&#x103;" horiz-adv-x="502" 
d="M243 558.5q-37 24.5 -37 69.5q0 55 53 55q33 0 34 -32q1 -20 11 -28t45 -8q32 0 50 6.5t28.5 19t23.5 37.5q7 6 16.5 10t17.5 4q35 0 44 -14q-10 -70 -63 -106t-125 -38q-61 0 -98 24.5zM409 5q-2 -6 -17.5 -12t-26.5 -6q-36 0 -51.5 10.5t-15.5 31.5q0 20 4 40
q-22 -30 -64.5 -49.5t-68.5 -19.5q-67 0 -111.5 39t-44.5 125q0 81 38.5 152.5t106.5 115t151 43.5q16 0 42 -8.5t52.5 -29t44.5 -52.5q8 0 19 -8t11 -16q0 -9 -3 -18l-73 -291q2 -26 7 -47zM333.5 369q-17.5 15 -31.5 15q-46 0 -86.5 -32.5t-65.5 -80.5t-25 -91
q0 -42 10 -69t39 -27q25 0 57.5 15t58 40.5t33.5 53.5l34 139q-6 22 -23.5 37z" />
    <glyph glyph-name="uni1EAF" unicode="&#x1eaf;" horiz-adv-x="502" 
d="M371.5 770q30.5 38 41.5 38q16 0 45.5 -13.5t29.5 -23.5q0 -9 -10 -18.5t-40 -29.5l-34 -24q-24 -18 -36.5 -25t-25.5 -7q-14 0 -20 5t-6 17q0 4 2 8q23 35 53.5 73zM241 560.5q-37 24.5 -37 69.5q0 55 53 55q27 0 28 -36q1 -19 12.5 -27.5t47.5 -8.5q32 0 50.5 7.5
t29.5 21t24 38.5q7 6 16.5 10t17.5 4q35 0 44 -14q-10 -70 -63 -106t-125 -38q-61 0 -98 24.5zM409 5q-2 -6 -17.5 -12t-26.5 -6q-36 0 -51.5 10.5t-15.5 31.5q0 20 4 40q-22 -30 -64.5 -49.5t-68.5 -19.5q-67 0 -111.5 39t-44.5 125q0 81 38.5 152.5t106.5 115t151 43.5
q16 0 42 -8.5t52.5 -29t44.5 -52.5q8 0 19 -8t11 -16q0 -9 -3 -18l-73 -291q2 -26 7 -47zM333.5 369q-17.5 15 -31.5 15q-46 0 -86.5 -32.5t-65.5 -80.5t-25 -91q0 -42 10 -69t39 -27q25 0 57.5 15t58 40.5t33.5 53.5l34 139q-6 22 -23.5 37z" />
    <glyph glyph-name="uni1EB7" unicode="&#x1eb7;" horiz-adv-x="502" 
d="M241 560.5q-37 24.5 -37 69.5q0 55 53 55q33 0 34 -32q1 -20 11 -28t45 -8q32 0 50 6.5t28.5 19t23.5 37.5q7 6 16.5 10t17.5 4q35 0 44 -14q-10 -70 -63 -106t-125 -38q-61 0 -98 24.5zM409 5q-2 -6 -17.5 -12t-26.5 -6q-36 0 -51.5 10.5t-15.5 31.5q0 20 4 40
q-22 -30 -64.5 -49.5t-68.5 -19.5q-67 0 -111.5 39t-44.5 125q0 81 38.5 152.5t106.5 115t151 43.5q16 0 42 -8.5t52.5 -29t44.5 -52.5q8 0 19 -8t11 -16q0 -9 -3 -18l-73 -291q2 -26 7 -47zM333.5 369q-17.5 15 -31.5 15q-46 0 -86.5 -32.5t-65.5 -80.5t-25 -91
q0 -42 10 -69t39 -27q25 0 57.5 15t58 40.5t33.5 53.5l34 139q-6 22 -23.5 37zM118 -196.5q-21 18.5 -21 41.5q0 34 28 59t62 25q25 0 45 -21.5t20 -46.5q0 -32 -27 -54t-63 -22q-23 0 -44 18.5z" />
    <glyph glyph-name="uni1EB1" unicode="&#x1eb1;" horiz-adv-x="502" 
d="M400 689q0 -12 -6 -17t-20 -5q-13 0 -25.5 7t-36.5 25l-34 24q-30 20 -40 29.5t-10 18.5q0 10 29.5 23.5t45.5 13.5q11 0 41.5 -38t53.5 -73q2 -4 2 -8zM241 560.5q-37 24.5 -37 69.5q0 55 53 55q27 0 28 -36q1 -19 12.5 -27.5t47.5 -8.5q32 0 50.5 7.5t29.5 21t24 38.5
q7 6 16.5 10t17.5 4q35 0 44 -14q-10 -70 -63 -106t-125 -38q-61 0 -98 24.5zM409 5q-2 -6 -17.5 -12t-26.5 -6q-36 0 -51.5 10.5t-15.5 31.5q0 20 4 40q-22 -30 -64.5 -49.5t-68.5 -19.5q-67 0 -111.5 39t-44.5 125q0 81 38.5 152.5t106.5 115t151 43.5q16 0 42 -8.5
t52.5 -29t44.5 -52.5q8 0 19 -8t11 -16q0 -9 -3 -18l-73 -291q2 -26 7 -47zM333.5 369q-17.5 15 -31.5 15q-46 0 -86.5 -32.5t-65.5 -80.5t-25 -91q0 -42 10 -69t39 -27q25 0 57.5 15t58 40.5t33.5 53.5l34 139q-6 22 -23.5 37z" />
    <glyph glyph-name="uni1EB3" unicode="&#x1eb3;" horiz-adv-x="502" 
d="M379 672q-5 -8 -10 -12t-17 -4q-11 0 -22.5 3.5t-11.5 12.5l9 25q5 12 15.5 18.5t28.5 12.5q20 7 29.5 14t9.5 22q0 6 -6.5 11.5t-22.5 5.5q-21 0 -35 -8q-12 -6 -21 -6q-8 0 -14 8t-6 17q0 23 26 32t61 9t61 -15.5t26 -44.5q0 -50 -81 -82q-13 -4 -19 -19zM241 560.5
q-37 24.5 -37 69.5q0 55 53 55q27 0 28 -36q1 -19 12.5 -27.5t47.5 -8.5q32 0 50.5 7.5t29.5 21t24 38.5q7 6 16.5 10t17.5 4q35 0 44 -14q-10 -70 -63 -106t-125 -38q-61 0 -98 24.5zM409 5q-2 -6 -17.5 -12t-26.5 -6q-36 0 -51.5 10.5t-15.5 31.5q0 20 4 40
q-22 -30 -64.5 -49.5t-68.5 -19.5q-67 0 -111.5 39t-44.5 125q0 81 38.5 152.5t106.5 115t151 43.5q16 0 42 -8.5t52.5 -29t44.5 -52.5q8 0 19 -8t11 -16q0 -9 -3 -18l-73 -291q2 -26 7 -47zM333.5 369q-17.5 15 -31.5 15q-46 0 -86.5 -32.5t-65.5 -80.5t-25 -91
q0 -42 10 -69t39 -27q25 0 57.5 15t58 40.5t33.5 53.5l34 139q-6 22 -23.5 37z" />
    <glyph glyph-name="uni1EB5" unicode="&#x1eb5;" horiz-adv-x="502" 
d="M240 719q-10 5 -14 15t-4 32q0 16 18 33t44 28t48 11q39 0 79 -28q18 -12 30 -17t27 -5q11 0 20 5.5t17.5 13t13.5 11.5q5 3 8 3q4 0 7.5 -4t4.5 -4q2 0 2 -7q0 -23 -17 -43t-39.5 -32t-36.5 -12q-20 0 -34.5 5.5t-40.5 20.5q-17 12 -29.5 16.5t-26.5 4.5q-28 0 -77 -47z
M241 560.5q-37 24.5 -37 69.5q0 55 53 55q27 0 28 -36q1 -19 12.5 -27.5t47.5 -8.5q32 0 50.5 7.5t29.5 21t24 38.5q7 6 16.5 10t17.5 4q35 0 44 -14q-10 -70 -63 -106t-125 -38q-61 0 -98 24.5zM409 5q-2 -6 -17.5 -12t-26.5 -6q-36 0 -51.5 10.5t-15.5 31.5q0 20 4 40
q-22 -30 -64.5 -49.5t-68.5 -19.5q-67 0 -111.5 39t-44.5 125q0 81 38.5 152.5t106.5 115t151 43.5q16 0 42 -8.5t52.5 -29t44.5 -52.5q8 0 19 -8t11 -16q0 -9 -3 -18l-73 -291q2 -26 7 -47zM333.5 369q-17.5 15 -31.5 15q-46 0 -86.5 -32.5t-65.5 -80.5t-25 -91
q0 -42 10 -69t39 -27q25 0 57.5 15t58 40.5t33.5 53.5l34 139q-6 22 -23.5 37z" />
    <glyph glyph-name="uni01CE" unicode="&#x1ce;" horiz-adv-x="502" 
d="M296.5 551.5q-15.5 9.5 -38.5 39.5l-51 66q-10 13 -10 25q0 16 15.5 27.5t36.5 11.5q20 0 38 -21l55 -66q60 52 88.5 73t41.5 21q20 0 35.5 -9t15.5 -24q0 -11 -3.5 -20t-17.5 -20l-22 -18q-75 -62 -103 -83q-15 -12 -45 -12q-20 0 -35.5 9.5zM409 5q-2 -6 -17.5 -12
t-26.5 -6q-36 0 -51.5 10.5t-15.5 31.5q0 20 4 40q-22 -30 -64.5 -49.5t-68.5 -19.5q-67 0 -111.5 39t-44.5 125q0 81 38.5 152.5t106.5 115t151 43.5q16 0 42 -8.5t52.5 -29t44.5 -52.5q8 0 19 -8t11 -16q0 -9 -3 -18l-73 -291q2 -26 7 -47zM333.5 369q-17.5 15 -31.5 15
q-46 0 -86.5 -32.5t-65.5 -80.5t-25 -91q0 -42 10 -69t39 -27q25 0 57.5 15t58 40.5t33.5 53.5l34 139q-6 22 -23.5 37z" />
    <glyph glyph-name="acircumflex" unicode="&#xe2;" horiz-adv-x="502" 
d="M381.5 718.5q15.5 -9.5 38.5 -39.5l51 -66q10 -13 10 -25q0 -16 -15.5 -27.5t-36.5 -11.5q-20 0 -38 21l-55 66q-60 -52 -88.5 -73t-41.5 -21q-20 0 -35.5 9t-15.5 24q0 11 3.5 20t17.5 20l22 18q75 62 103 83q15 12 45 12q20 0 35.5 -9.5zM409 5q-2 -6 -17.5 -12
t-26.5 -6q-36 0 -51.5 10.5t-15.5 31.5q0 20 4 40q-22 -30 -64.5 -49.5t-68.5 -19.5q-67 0 -111.5 39t-44.5 125q0 81 38.5 152.5t106.5 115t151 43.5q16 0 42 -8.5t52.5 -29t44.5 -52.5q8 0 19 -8t11 -16q0 -9 -3 -18l-73 -291q2 -26 7 -47zM333.5 369q-17.5 15 -31.5 15
q-46 0 -86.5 -32.5t-65.5 -80.5t-25 -91q0 -42 10 -69t39 -27q25 0 57.5 15t58 40.5t33.5 53.5l34 139q-6 22 -23.5 37z" />
    <glyph glyph-name="uni1EA5" unicode="&#x1ea5;" horiz-adv-x="502" 
d="M528.5 767q30.5 38 41.5 38q16 0 45.5 -13.5t29.5 -23.5q0 -9 -10 -18.5t-40 -29.5l-34 -24q-24 -18 -36.5 -25t-25.5 -7q-14 0 -20 5t-6 17q0 4 2 8q23 35 53.5 73zM405.5 711.5q15.5 -9.5 38.5 -39.5l51 -66q10 -13 10 -25q0 -16 -15.5 -27.5t-36.5 -11.5q-20 0 -38 21
l-55 66q-60 -52 -88.5 -73t-41.5 -21q-20 0 -35.5 9t-15.5 24q0 11 3.5 20t17.5 20l22 18q75 62 103 83q15 12 45 12q20 0 35.5 -9.5zM409 5q-2 -6 -17.5 -12t-26.5 -6q-36 0 -51.5 10.5t-15.5 31.5q0 20 4 40q-22 -30 -64.5 -49.5t-68.5 -19.5q-67 0 -111.5 39t-44.5 125
q0 81 38.5 152.5t106.5 115t151 43.5q16 0 42 -8.5t52.5 -29t44.5 -52.5q8 0 19 -8t11 -16q0 -9 -3 -18l-73 -291q2 -26 7 -47zM333.5 369q-17.5 15 -31.5 15q-46 0 -86.5 -32.5t-65.5 -80.5t-25 -91q0 -42 10 -69t39 -27q25 0 57.5 15t58 40.5t33.5 53.5l34 139
q-6 22 -23.5 37z" />
    <glyph glyph-name="uni1EAD" unicode="&#x1ead;" horiz-adv-x="502" 
d="M405.5 711.5q15.5 -9.5 38.5 -39.5l51 -66q10 -13 10 -25q0 -16 -15.5 -27.5t-36.5 -11.5q-20 0 -38 21l-55 66q-60 -52 -88.5 -73t-41.5 -21q-20 0 -35.5 9t-15.5 24q0 11 3.5 20t17.5 20l22 18q75 62 103 83q15 12 45 12q20 0 35.5 -9.5zM409 5q-2 -6 -17.5 -12
t-26.5 -6q-36 0 -51.5 10.5t-15.5 31.5q0 20 4 40q-22 -30 -64.5 -49.5t-68.5 -19.5q-67 0 -111.5 39t-44.5 125q0 81 38.5 152.5t106.5 115t151 43.5q16 0 42 -8.5t52.5 -29t44.5 -52.5q8 0 19 -8t11 -16q0 -9 -3 -18l-73 -291q2 -26 7 -47zM333.5 369q-17.5 15 -31.5 15
q-46 0 -86.5 -32.5t-65.5 -80.5t-25 -91q0 -42 10 -69t39 -27q25 0 57.5 15t58 40.5t33.5 53.5l34 139q-6 22 -23.5 37zM118 -196.5q-21 18.5 -21 41.5q0 34 28 59t62 25q25 0 45 -21.5t20 -46.5q0 -32 -27 -54t-63 -22q-23 0 -44 18.5z" />
    <glyph glyph-name="uni1EA7" unicode="&#x1ea7;" horiz-adv-x="502" 
d="M222 686q0 -12 -6 -17t-20 -5q-13 0 -25.5 7t-36.5 25l-34 24q-30 20 -40 29.5t-10 18.5q0 10 29.5 23.5t45.5 13.5q11 0 41.5 -38t53.5 -73q2 -4 2 -8zM405.5 711.5q15.5 -9.5 38.5 -39.5l51 -66q10 -13 10 -25q0 -16 -15.5 -27.5t-36.5 -11.5q-20 0 -38 21l-55 66
q-60 -52 -88.5 -73t-41.5 -21q-20 0 -35.5 9t-15.5 24q0 11 3.5 20t17.5 20l22 18q75 62 103 83q15 12 45 12q20 0 35.5 -9.5zM409 5q-2 -6 -17.5 -12t-26.5 -6q-36 0 -51.5 10.5t-15.5 31.5q0 20 4 40q-22 -30 -64.5 -49.5t-68.5 -19.5q-67 0 -111.5 39t-44.5 125
q0 81 38.5 152.5t106.5 115t151 43.5q16 0 42 -8.5t52.5 -29t44.5 -52.5q8 0 19 -8t11 -16q0 -9 -3 -18l-73 -291q2 -26 7 -47zM333.5 369q-17.5 15 -31.5 15q-46 0 -86.5 -32.5t-65.5 -80.5t-25 -91q0 -42 10 -69t39 -27q25 0 57.5 15t58 40.5t33.5 53.5l34 139
q-6 22 -23.5 37z" />
    <glyph glyph-name="uni1EA9" unicode="&#x1ea9;" horiz-adv-x="502" 
d="M519 661q-13 0 -20.5 4.5t-7.5 11.5q0 4 13 52q3 13 14 19.5t30 12.5q20 7 29.5 13.5t9.5 21.5q0 6 -6.5 11.5t-22.5 5.5q-21 0 -35 -8q-12 -6 -21 -6q-8 0 -14 8t-6 17q0 23 26 32t61 9t61 -15.5t26 -44.5q0 -52 -70 -80q-14 -5 -19.5 -12.5t-7.5 -16t-4 -13.5
q-11 -22 -36 -22zM405.5 711.5q15.5 -9.5 38.5 -39.5l51 -66q10 -13 10 -25q0 -16 -15.5 -27.5t-36.5 -11.5q-20 0 -38 21l-55 66q-60 -52 -88.5 -73t-41.5 -21q-20 0 -35.5 9t-15.5 24q0 11 3.5 20t17.5 20l22 18q75 62 103 83q15 12 45 12q20 0 35.5 -9.5zM409 5
q-2 -6 -17.5 -12t-26.5 -6q-36 0 -51.5 10.5t-15.5 31.5q0 20 4 40q-22 -30 -64.5 -49.5t-68.5 -19.5q-67 0 -111.5 39t-44.5 125q0 81 38.5 152.5t106.5 115t151 43.5q16 0 42 -8.5t52.5 -29t44.5 -52.5q8 0 19 -8t11 -16q0 -9 -3 -18l-73 -291q2 -26 7 -47zM333.5 369
q-17.5 15 -31.5 15q-46 0 -86.5 -32.5t-65.5 -80.5t-25 -91q0 -42 10 -69t39 -27q25 0 57.5 15t58 40.5t33.5 53.5l34 139q-6 22 -23.5 37z" />
    <glyph glyph-name="uni1EAB" unicode="&#x1eab;" horiz-adv-x="502" 
d="M262 748q-10 5 -14 15t-4 32q0 16 18 33t44 28t48 11q39 0 79 -28q18 -12 30 -17t27 -5q11 0 20 5.5t17.5 13t13.5 11.5q5 3 8 3q4 0 7.5 -4t4.5 -4q2 0 2 -7q0 -23 -17 -43t-39.5 -32t-36.5 -12q-20 0 -34.5 5.5t-40.5 20.5q-17 12 -29.5 16.5t-26.5 4.5q-28 0 -77 -47z
M405.5 711.5q15.5 -9.5 38.5 -39.5l51 -66q10 -13 10 -25q0 -16 -15.5 -27.5t-36.5 -11.5q-20 0 -38 21l-55 66q-60 -52 -88.5 -73t-41.5 -21q-20 0 -35.5 9t-15.5 24q0 11 3.5 20t17.5 20l22 18q75 62 103 83q15 12 45 12q20 0 35.5 -9.5zM409 5q-2 -6 -17.5 -12t-26.5 -6
q-36 0 -51.5 10.5t-15.5 31.5q0 20 4 40q-22 -30 -64.5 -49.5t-68.5 -19.5q-67 0 -111.5 39t-44.5 125q0 81 38.5 152.5t106.5 115t151 43.5q16 0 42 -8.5t52.5 -29t44.5 -52.5q8 0 19 -8t11 -16q0 -9 -3 -18l-73 -291q2 -26 7 -47zM333.5 369q-17.5 15 -31.5 15
q-46 0 -86.5 -32.5t-65.5 -80.5t-25 -91q0 -42 10 -69t39 -27q25 0 57.5 15t58 40.5t33.5 53.5l34 139q-6 22 -23.5 37z" />
    <glyph glyph-name="uni0201" unicode="&#x201;" horiz-adv-x="502" 
d="M391 539.5q-5 -14.5 -15 -14.5l-4 1q-10 3 -20.5 13.5t-25.5 29.5q-24 27 -38 40.5t-32 19.5q-11 4 -17 9.5t-6 18.5q0 23 12.5 45t33.5 22q53 0 111 -132q6 -13 6 -26q0 -12 -5 -26.5zM566 539.5q-5 -14.5 -15 -14.5l-4 1q-10 3 -20.5 13.5t-25.5 29.5q-24 27 -38 40.5
t-32 19.5q-11 4 -17 9.5t-6 18.5q0 23 12.5 45t33.5 22q53 0 111 -132q6 -13 6 -26q0 -12 -5 -26.5zM409 5q-2 -6 -17.5 -12t-26.5 -6q-36 0 -51.5 10.5t-15.5 31.5q0 20 4 40q-22 -30 -64.5 -49.5t-68.5 -19.5q-67 0 -111.5 39t-44.5 125q0 81 38.5 152.5t106.5 115
t151 43.5q16 0 42 -8.5t52.5 -29t44.5 -52.5q8 0 19 -8t11 -16q0 -9 -3 -18l-73 -291q2 -26 7 -47zM333.5 369q-17.5 15 -31.5 15q-46 0 -86.5 -32.5t-65.5 -80.5t-25 -91q0 -42 10 -69t39 -27q25 0 57.5 15t58 40.5t33.5 53.5l34 139q-6 22 -23.5 37z" />
    <glyph glyph-name="adieresis" unicode="&#xe4;" horiz-adv-x="502" 
d="M393 560q-23 20 -23 42q0 35 26 57.5t60 22.5q26 0 49 -20t23 -44q0 -32 -26.5 -55t-62.5 -23q-23 0 -46 20zM167 554.5q-21 18.5 -21 41.5q0 34 28 59t62 25q25 0 45 -21.5t20 -46.5q0 -32 -27 -54t-63 -22q-23 0 -44 18.5zM409 5q-2 -6 -17.5 -12t-26.5 -6
q-36 0 -51.5 10.5t-15.5 31.5q0 20 4 40q-22 -30 -64.5 -49.5t-68.5 -19.5q-67 0 -111.5 39t-44.5 125q0 81 38.5 152.5t106.5 115t151 43.5q16 0 42 -8.5t52.5 -29t44.5 -52.5q8 0 19 -8t11 -16q0 -9 -3 -18l-73 -291q2 -26 7 -47zM333.5 369q-17.5 15 -31.5 15
q-46 0 -86.5 -32.5t-65.5 -80.5t-25 -91q0 -42 10 -69t39 -27q25 0 57.5 15t58 40.5t33.5 53.5l34 139q-6 22 -23.5 37z" />
    <glyph glyph-name="uni1EA1" unicode="&#x1ea1;" horiz-adv-x="502" 
d="M409 5q-2 -6 -17.5 -12t-26.5 -6q-36 0 -51.5 10.5t-15.5 31.5q0 20 4 40q-22 -30 -64.5 -49.5t-68.5 -19.5q-67 0 -111.5 39t-44.5 125q0 81 38.5 152.5t106.5 115t151 43.5q16 0 42 -8.5t52.5 -29t44.5 -52.5q8 0 19 -8t11 -16q0 -9 -3 -18l-73 -291q2 -26 7 -47z
M333.5 369q-17.5 15 -31.5 15q-46 0 -86.5 -32.5t-65.5 -80.5t-25 -91q0 -42 10 -69t39 -27q25 0 57.5 15t58 40.5t33.5 53.5l34 139q-6 22 -23.5 37zM118 -196.5q-21 18.5 -21 41.5q0 34 28 59t62 25q25 0 45 -21.5t20 -46.5q0 -32 -27 -54t-63 -22q-23 0 -44 18.5z" />
    <glyph glyph-name="agrave" unicode="&#xe0;" horiz-adv-x="502" 
d="M418 573q0 -17 -9 -24t-28 -7q-26 0 -58 16.5t-93 59.5q-43 30 -57 43t-14 26q0 16 27 35t48 19q11 0 49.5 -29.5t78 -67.5t53.5 -59q3 -4 3 -12zM409 5q-2 -6 -17.5 -12t-26.5 -6q-36 0 -51.5 10.5t-15.5 31.5q0 20 4 40q-22 -30 -64.5 -49.5t-68.5 -19.5
q-67 0 -111.5 39t-44.5 125q0 81 38.5 152.5t106.5 115t151 43.5q16 0 42 -8.5t52.5 -29t44.5 -52.5q8 0 19 -8t11 -16q0 -9 -3 -18l-73 -291q2 -26 7 -47zM333.5 369q-17.5 15 -31.5 15q-46 0 -86.5 -32.5t-65.5 -80.5t-25 -91q0 -42 10 -69t39 -27q25 0 57.5 15t58 40.5
t33.5 53.5l34 139q-6 22 -23.5 37z" />
    <glyph glyph-name="uni1EA3" unicode="&#x1ea3;" horiz-adv-x="502" 
d="M318 528q-16 0 -25 5t-9 14q0 7 16 66q4 16 17 24t38 16t37 16.5t12 26.5q0 8 -8.5 15t-28.5 7q-21 0 -31.5 -4.5t-11.5 -5.5t-8.5 -4.5t-18.5 -3.5q-10 0 -17.5 10t-7.5 21q0 29 32.5 40t76.5 11q43 0 76 -19t33 -56q0 -38 -24 -60.5t-62 -37.5q-18 -7 -25 -17
t-10 -20.5t-5 -16.5q-15 -27 -46 -27zM409 5q-2 -6 -17.5 -12t-26.5 -6q-36 0 -51.5 10.5t-15.5 31.5q0 20 4 40q-22 -30 -64.5 -49.5t-68.5 -19.5q-67 0 -111.5 39t-44.5 125q0 81 38.5 152.5t106.5 115t151 43.5q16 0 42 -8.5t52.5 -29t44.5 -52.5q8 0 19 -8t11 -16
q0 -9 -3 -18l-73 -291q2 -26 7 -47zM333.5 369q-17.5 15 -31.5 15q-46 0 -86.5 -32.5t-65.5 -80.5t-25 -91q0 -42 10 -69t39 -27q25 0 57.5 15t58 40.5t33.5 53.5l34 139q-6 22 -23.5 37z" />
    <glyph glyph-name="uni0203" unicode="&#x203;" horiz-adv-x="502" 
d="M462.5 652q41.5 -22 41.5 -65q0 -56 -49 -56q-41 0 -43 28q-2 34 -56 34q-87 0 -104 -56q-2 -8 -14.5 -13.5t-21.5 -5.5q-25 0 -38 5t-13 19q0 123 197 132q59 0 100.5 -22zM409 5q-2 -6 -17.5 -12t-26.5 -6q-36 0 -51.5 10.5t-15.5 31.5q0 20 4 40q-22 -30 -64.5 -49.5
t-68.5 -19.5q-67 0 -111.5 39t-44.5 125q0 81 38.5 152.5t106.5 115t151 43.5q16 0 42 -8.5t52.5 -29t44.5 -52.5q8 0 19 -8t11 -16q0 -9 -3 -18l-73 -291q2 -26 7 -47zM333.5 369q-17.5 15 -31.5 15q-46 0 -86.5 -32.5t-65.5 -80.5t-25 -91q0 -42 10 -69t39 -27
q25 0 57.5 15t58 40.5t33.5 53.5l34 139q-6 22 -23.5 37z" />
    <glyph glyph-name="uni0251" unicode="&#x251;" horiz-adv-x="502" 
d="M404.5 480.5q11.5 6.5 31.5 6.5q18 0 37 -8t19 -23q-42 -167 -65 -271t-23 -127q0 -31 5 -53q-2 -6 -17.5 -12t-26.5 -6q-36 0 -51.5 10.5t-15.5 31.5q0 20 4 40q-22 -30 -64.5 -49.5t-68.5 -19.5q-67 0 -111.5 39t-44.5 125q0 81 37.5 152.5t104.5 115t150 43.5
q40 0 74 -47l9 30q5 16 16.5 22.5zM330 365.5q-18 18.5 -32 18.5q-46 0 -85.5 -32.5t-63.5 -80.5t-24 -91q0 -42 10 -69t39 -27q25 0 58 15t58.5 40.5t32.5 53.5l31 132q-6 22 -24 40.5z" />
    <glyph glyph-name="amacron" unicode="&#x101;" horiz-adv-x="502" 
d="M497 575q-19 -13 -49 -15l-209 -11q-28 -4 -43 -4q-44 3 -47 40v8q2 22 14.5 34t39.5 17.5t77 7.5l189 8q47 -3 48 -40v-7q-1 -25 -20 -38zM409 5q-2 -6 -17.5 -12t-26.5 -6q-36 0 -51.5 10.5t-15.5 31.5q0 20 4 40q-22 -30 -64.5 -49.5t-68.5 -19.5q-67 0 -111.5 39
t-44.5 125q0 81 38.5 152.5t106.5 115t151 43.5q16 0 42 -8.5t52.5 -29t44.5 -52.5q8 0 19 -8t11 -16q0 -9 -3 -18l-73 -291q2 -26 7 -47zM333.5 369q-17.5 15 -31.5 15q-46 0 -86.5 -32.5t-65.5 -80.5t-25 -91q0 -42 10 -69t39 -27q25 0 57.5 15t58 40.5t33.5 53.5l34 139
q-6 22 -23.5 37z" />
    <glyph glyph-name="aogonek" unicode="&#x105;" horiz-adv-x="502" 
d="M475 343l-73 -291q2 -26 7 -47q-1 -4 -8.5 -8t-15.5 -6q-30 -29 -44 -53t-14 -51q0 -45 45 -45q22 0 48 6q14 -10 14 -20q0 -25 -33 -35t-67 -10q-48 0 -81.5 25t-33.5 79q0 27 26.5 57t70.5 52q-18 10 -18 33q0 20 4 40q-22 -30 -64.5 -49.5t-68.5 -19.5
q-67 0 -111.5 39t-44.5 125q0 81 38.5 152.5t106.5 115t151 43.5q16 0 42 -8.5t52.5 -29t44.5 -52.5q8 0 19 -8t11 -16q0 -9 -3 -18zM231.5 99q32.5 15 58 40.5t33.5 53.5l34 139q-6 22 -23.5 37t-31.5 15q-46 0 -86.5 -32.5t-65.5 -80.5t-25 -91q0 -42 10 -69t39 -27
q25 0 57.5 15z" />
    <glyph glyph-name="aring" unicode="&#xe5;" horiz-adv-x="502" 
d="M279.5 536.5q-25.5 27.5 -25.5 68.5q0 53 39.5 85t101.5 32q37 0 65.5 -29t28.5 -73q0 -30 -19.5 -55.5t-52 -40.5t-69.5 -15q-43 0 -68.5 27.5zM402 577.5q18 16.5 18 47.5q0 18 -10.5 28.5t-26.5 10.5q-64 0 -64 -63q0 -18 13 -29t28 -11q24 0 42 16.5zM409 5
q-2 -6 -17.5 -12t-26.5 -6q-36 0 -51.5 10.5t-15.5 31.5q0 20 4 40q-22 -30 -64.5 -49.5t-68.5 -19.5q-67 0 -111.5 39t-44.5 125q0 81 38.5 152.5t106.5 115t151 43.5q16 0 42 -8.5t52.5 -29t44.5 -52.5q8 0 19 -8t11 -16q0 -9 -3 -18l-73 -291q2 -26 7 -47zM333.5 369
q-17.5 15 -31.5 15q-46 0 -86.5 -32.5t-65.5 -80.5t-25 -91q0 -42 10 -69t39 -27q25 0 57.5 15t58 40.5t33.5 53.5l34 139q-6 22 -23.5 37z" />
    <glyph glyph-name="aringacute" unicode="&#x1fb;" horiz-adv-x="502" 
d="M394 840q40 34 79 60.5t50 26.5q21 0 48.5 -17.5t27.5 -30.5q0 -12 -14.5 -24t-57.5 -38q-60 -37 -92.5 -52t-59.5 -15q-20 0 -29 6t-9 21q0 7 3 11q14 18 54 52zM279.5 536.5q-25.5 27.5 -25.5 68.5q0 53 39.5 85t101.5 32q37 0 65.5 -29t28.5 -73q0 -30 -19.5 -55.5
t-52 -40.5t-69.5 -15q-43 0 -68.5 27.5zM402 577.5q18 16.5 18 47.5q0 18 -10.5 28.5t-26.5 10.5q-64 0 -64 -63q0 -18 13 -29t28 -11q24 0 42 16.5zM409 5q-2 -6 -17.5 -12t-26.5 -6q-36 0 -51.5 10.5t-15.5 31.5q0 20 4 40q-22 -30 -64.5 -49.5t-68.5 -19.5
q-67 0 -111.5 39t-44.5 125q0 81 38.5 152.5t106.5 115t151 43.5q16 0 42 -8.5t52.5 -29t44.5 -52.5q8 0 19 -8t11 -16q0 -9 -3 -18l-73 -291q2 -26 7 -47zM333.5 369q-17.5 15 -31.5 15q-46 0 -86.5 -32.5t-65.5 -80.5t-25 -91q0 -42 10 -69t39 -27q25 0 57.5 15t58 40.5
t33.5 53.5l34 139q-6 22 -23.5 37z" />
    <glyph glyph-name="atilde" unicode="&#xe3;" horiz-adv-x="502" 
d="M166 542q-12 7 -17 17.5t-5 36.5q0 20 21 42t50.5 36.5t53.5 14.5q44 0 90 -35q19 -15 34 -21t32 -6q12 0 22 6.5t20 16t15 14.5q4 4 9 4q4 0 8 -5t5 -5q2 0 2 -9q0 -28 -19 -52.5t-44 -39.5t-40 -15q-23 0 -41.5 7.5t-44.5 24.5q-19 15 -33.5 21t-30.5 6q-33 0 -87 -59z
M409 5q-2 -6 -17.5 -12t-26.5 -6q-36 0 -51.5 10.5t-15.5 31.5q0 20 4 40q-22 -30 -64.5 -49.5t-68.5 -19.5q-67 0 -111.5 39t-44.5 125q0 81 38.5 152.5t106.5 115t151 43.5q16 0 42 -8.5t52.5 -29t44.5 -52.5q8 0 19 -8t11 -16q0 -9 -3 -18l-73 -291q2 -26 7 -47z
M333.5 369q-17.5 15 -31.5 15q-46 0 -86.5 -32.5t-65.5 -80.5t-25 -91q0 -42 10 -69t39 -27q25 0 57.5 15t58 40.5t33.5 53.5l34 139q-6 22 -23.5 37z" />
    <glyph glyph-name="ae" unicode="&#xe6;" horiz-adv-x="818" 
d="M350 85q-14 -29 -49.5 -48.5t-73.5 -28t-58 -8.5q-71 0 -113.5 31t-42.5 116q0 60 45 138t113.5 134t133.5 56q48 0 78.5 -28.5t56.5 -78.5q51 53 103.5 75t120.5 22q56 0 94 -31.5t38 -92.5q0 -35 -22.5 -57.5t-64.5 -40t-136 -49.5q-85 -28 -138 -47q-4 -15 -4 -22
q0 -28 23.5 -43t66.5 -15q27 0 62 11t44 28q34 62 62 62q41 0 55.5 -15.5t15.5 -34.5q-12 -32 -47 -64.5t-89 -53.5t-118 -21q-130 0 -156 106zM330 365.5q-18 18.5 -32 18.5q-27 0 -68.5 -42.5t-73 -97.5t-31.5 -86q0 -38 9.5 -56t39.5 -18q25 0 58 15t58.5 40.5t32.5 53.5
l31 132q-6 22 -24 40.5zM626 298.5q64 27.5 64 54.5q0 12 -13 19.5t-28 7.5q-30 0 -68.5 -23t-71.5 -56t-46 -62q99 32 163 59.5z" />
    <glyph glyph-name="aeacute" unicode="&#x1fd;" horiz-adv-x="818" 
d="M497.5 631q39.5 38 78 67.5t49.5 29.5q21 0 48 -19t27 -35q0 -13 -14 -26t-57 -43q-61 -43 -93 -59.5t-58 -16.5q-19 0 -28 7t-9 24q0 8 3 12q14 21 53.5 59zM350 85q-14 -29 -49.5 -48.5t-73.5 -28t-58 -8.5q-71 0 -113.5 31t-42.5 116q0 60 45 138t113.5 134t133.5 56
q48 0 78.5 -28.5t56.5 -78.5q51 53 103.5 75t120.5 22q56 0 94 -31.5t38 -92.5q0 -35 -22.5 -57.5t-64.5 -40t-136 -49.5q-85 -28 -138 -47q-4 -15 -4 -22q0 -28 23.5 -43t66.5 -15q27 0 62 11t44 28q34 62 62 62q41 0 55.5 -15.5t15.5 -34.5q-12 -32 -47 -64.5t-89 -53.5
t-118 -21q-130 0 -156 106zM330 365.5q-18 18.5 -32 18.5q-27 0 -68.5 -42.5t-73 -97.5t-31.5 -86q0 -38 9.5 -56t39.5 -18q25 0 58 15t58.5 40.5t32.5 53.5l31 132q-6 22 -24 40.5zM626 298.5q64 27.5 64 54.5q0 12 -13 19.5t-28 7.5q-30 0 -68.5 -23t-71.5 -56t-46 -62
q99 32 163 59.5z" />
    <glyph glyph-name="b" unicode="b" horiz-adv-x="549" 
d="M123 21q-9 -23 -16 -33.5t-22 -10.5l-28 -1q-25 0 -40 10.5t-17 42.5q1 1 10 22.5t18 58.5q12 49 24 97t23 93q15 59 44 176.5t45 186.5q-1 15 -2 41.5t-1 41.5q3 13 22.5 21t35.5 8q25 0 52 -17t28 -41l-75 -296q27 31 65.5 43.5t71.5 12.5q47 0 84.5 -27t59 -71.5
t21.5 -93.5q0 -72 -34 -141.5t-99 -114t-152 -44.5q-25 0 -61.5 18t-47.5 43q-6 -14 -9 -25zM195 88q26 -18 47 -18q47 0 86 41.5t62 99t23 103.5q0 32 -17 53t-50 21q-29 0 -62 -13t-58.5 -37.5t-34.5 -56.5l-35 -152q13 -23 39 -41z" />
    <glyph glyph-name="c" unicode="c" horiz-adv-x="499" 
d="M409 53.5q-35 -32.5 -89 -53.5t-118 -21q-98 0 -145 40.5t-47 105.5q0 94 48 174.5t129 127.5t173 47q57 0 94.5 -33.5t37.5 -90.5q0 -22 -18 -36.5t-48 -14.5q-24 0 -32.5 11t-8.5 29l1 23q0 12 -13 19.5t-28 7.5q-31 0 -83.5 -37t-92 -97.5t-39.5 -129.5q0 -28 22 -43
t65 -15q27 0 62 11t44 28q34 62 62 62q41 0 55.5 -15.5t15.5 -34.5q-12 -32 -47 -64.5z" />
    <glyph glyph-name="cacute" unicode="&#x107;" horiz-adv-x="499" 
d="M363.5 644q39.5 38 78 67.5t49.5 29.5q21 0 48 -19t27 -35q0 -13 -14 -26t-57 -43q-61 -43 -93 -59.5t-58 -16.5q-19 0 -28 7t-9 24q0 8 3 12q14 21 53.5 59zM409 53.5q-35 -32.5 -89 -53.5t-118 -21q-98 0 -145 40.5t-47 105.5q0 94 48 174.5t129 127.5t173 47
q57 0 94.5 -33.5t37.5 -90.5q0 -22 -18 -36.5t-48 -14.5q-24 0 -32.5 11t-8.5 29l1 23q0 12 -13 19.5t-28 7.5q-31 0 -83.5 -37t-92 -97.5t-39.5 -129.5q0 -28 22 -43t65 -15q27 0 62 11t44 28q34 62 62 62q41 0 55.5 -15.5t15.5 -34.5q-12 -32 -47 -64.5z" />
    </font>
</defs>
</svg>
